<?xml version="1.0" standalone="no"?>
<!DOCTYPE svg PUBLIC "-//W3C//DTD SVG 1.1//EN" "http://www.w3.org/Graphics/SVG/1.1/DTD/svg11.dtd" >
<svg xmlns="http://www.w3.org/2000/svg" xmlns:xlink="http://www.w3.org/1999/xlink" version="1.1">
<metadata>
Created by FontForge 20190801 at Thu Mar  9 11:46:45 2023
 By root
Copyright \(c\) 2023 Fontwerk GmbH. All rights reserved.
</metadata>
<defs>
<font id="Pangea-Light" horiz-adv-x="0" >
  <font-face 
    font-family="IberPangea Light"
    font-weight="300"
    font-stretch="normal"
    units-per-em="1000"
    panose-1="2 11 4 4 0 0 0 0 0 0"
    ascent="770"
    descent="-230"
    x-height="500"
    cap-height="700"
    bbox="-600 -303 3620 1056"
    underline-thickness="60"
    underline-position="-100"
    stemh="62"
    stemv="65"
    unicode-range="U+000D-1F4A7"
  />
<missing-glyph horiz-adv-x="763" 
d="M132 -100v900h499v-900h-499zM567 736h-371v-772h371v772z" />
    <glyph glyph-name="f_f" unicode="ff" horiz-adv-x="590" 
d="M98 500v70c0 76 42 134 131 134h54v-59h-49c-51 0 -71 -29 -71 -79v-66h104v-59h-104v-441h-65v441h-86v59h86zM582 645h-49c-51 0 -71 -29 -71 -79v-66h120v-59h-120v-441h-65v441h-90v59h90v70c0 76 42 134 131 134h54v-59z" />
    <glyph glyph-name="f_f_t" unicode="fft" horiz-adv-x="894" 
d="M98 500v70c0 76 42 134 131 134h54v-59h-49c-51 0 -71 -29 -71 -79v-66h104v-59h-104v-441h-65v441h-86v59h86zM397 500v70c0 76 42 134 131 134h54v-59h-49c-51 0 -71 -29 -71 -79v-66h104v-59h-104v-441h-65v441h-90v59h90zM880 500v-59h-120v-300c0 -52 20 -82 70 -82
h50v-59h-55c-89 0 -130 58 -130 134v307h-89v59h89v116l65 48v-164h120z" />
    <glyph glyph-name="f_t" unicode="ft" horiz-adv-x="595" 
d="M98 500v70c0 76 42 134 131 134h54v-59h-49c-51 0 -71 -29 -71 -79v-66h104v-59h-104v-441h-65v441h-86v59h86zM581 500v-59h-120v-300c0 -52 20 -82 70 -82h50v-59h-55c-89 0 -130 58 -130 134v307h-89v59h89v116l65 48v-164h120z" />
    <glyph glyph-name="t_t" unicode="tt" horiz-adv-x="608" 
d="M170 441v-300c0 -52 20 -82 70 -82h50v-59h-55c-89 0 -130 58 -130 134v307h-95v59h95v116l65 48v-164h110v-59h-110zM594 500v-59h-120v-300c0 -52 20 -82 70 -82h50v-59h-55c-89 0 -130 58 -130 134v307h-89v59h89v116l65 48v-164h120z" />
    <glyph glyph-name=".notdef" horiz-adv-x="763" 
d="M132 -100v900h499v-900h-499zM567 736h-371v-772h371v772z" />
    <glyph glyph-name="NULL" 
 />
    <glyph glyph-name="CR" unicode="&#xd;" horiz-adv-x="209" 
 />
    <glyph glyph-name="space" unicode=" " horiz-adv-x="209" 
 />
    <glyph glyph-name="A" unicode="A" horiz-adv-x="637" 
d="M474 221h-312l-87 -221h-70l282 700h63l283 -700h-72zM318 615l-131 -331h262z" />
    <glyph glyph-name="Aacute" unicode="&#xc1;" horiz-adv-x="637" 
d="M337 784h-65l86 134h74zM350 700l283 -700h-72l-87 221h-312l-87 -221h-70l282 700h63zM449 284l-131 331l-131 -331h262z" />
    <glyph glyph-name="Abreve" unicode="&#x102;" horiz-adv-x="637" 
d="M319 780c-80 0 -145 52 -145 138h61c0 -54 35 -83 84 -83s84 29 84 83h61c0 -86 -65 -138 -145 -138zM287 700h63l283 -700h-72l-87 221h-312l-87 -221h-70zM187 284h262l-131 331z" />
    <glyph glyph-name="uni1EAE" unicode="&#x1eae;" horiz-adv-x="637" 
d="M338 893h-65l60 93h74zM319 770c-67 0 -124 37 -140 100h63c13 -31 41 -47 77 -47s64 16 77 47h63c-16 -63 -73 -100 -140 -100zM5 0l282 700h63l283 -700h-72l-87 221h-312l-87 -221h-70zM318 615l-131 -331h262z" />
    <glyph glyph-name="uni1EB6" unicode="&#x1eb6;" horiz-adv-x="637" 
d="M319 780c-80 0 -145 52 -145 138h61c0 -54 35 -83 84 -83s84 29 84 83h61c0 -86 -65 -138 -145 -138zM75 0h-70l282 700h63l283 -700h-72l-87 221h-312zM449 284l-131 331l-131 -331h262zM318 -156c-28 0 -49 22 -49 51c0 28 21 50 49 50c29 0 51 -22 51 -50
c0 -29 -22 -51 -51 -51z" />
    <glyph glyph-name="uni1EB0" unicode="&#x1eb0;" horiz-adv-x="637" 
d="M363 893h-65l-69 93h74zM319 770c-67 0 -124 37 -140 100h63c13 -31 41 -47 77 -47s64 16 77 47h63c-16 -63 -73 -100 -140 -100zM162 221l-87 -221h-70l282 700h63l283 -700h-72l-87 221h-312zM187 284h262l-131 331z" />
    <glyph glyph-name="uni1EB2" unicode="&#x1eb2;" horiz-adv-x="637" 
d="M354 893h-60c26 32 33 43 33 56c0 16 -10 25 -27 25s-30 -13 -40 -30l-44 26c15 37 48 59 87 59c52 0 84 -32 84 -72c0 -24 -10 -43 -33 -64zM319 770c-67 0 -124 37 -140 100h63c13 -31 41 -47 77 -47s64 16 77 47h63c-16 -63 -73 -100 -140 -100zM474 221h-312
l-87 -221h-70l282 700h63l283 -700h-72zM318 615l-131 -331h262z" />
    <glyph glyph-name="uni1EB4" unicode="&#x1eb4;" horiz-adv-x="637" 
d="M379 893c-68 0 -84 46 -117 46c-16 0 -31 -9 -31 -42h-58c0 71 47 94 88 94c68 0 84 -47 117 -47c16 0 31 10 31 42h58c0 -71 -47 -93 -88 -93zM319 770c-67 0 -124 37 -140 100h63c13 -31 41 -47 77 -47s64 16 77 47h63c-16 -63 -73 -100 -140 -100zM561 0l-87 221h-312
l-87 -221h-70l282 700h63l283 -700h-72zM449 284l-131 331l-131 -331h262z" />
    <glyph glyph-name="uni01CD" unicode="&#x1cd;" horiz-adv-x="637" 
d="M479 918l-131 -134h-57l-131 134h81l79 -84l78 84h81zM287 700h63l283 -700h-72l-87 221h-312l-87 -221h-70zM318 615l-131 -331h262z" />
    <glyph glyph-name="Acircumflex" unicode="&#xc2;" horiz-adv-x="637" 
d="M398 784l-79 84l-78 -84h-81l131 134h57l131 -134h-81zM287 700h63l283 -700h-72l-87 221h-312l-87 -221h-70zM318 615l-131 -331h262z" />
    <glyph glyph-name="uni1EA4" unicode="&#x1ea4;" horiz-adv-x="637" 
d="M472 962h74l-69 -93h-65zM398 771l-79 84l-78 -84h-81l131 134h57l131 -134h-81zM287 700h63l283 -700h-72l-87 221h-312l-87 -221h-70zM318 615l-131 -331h262z" />
    <glyph glyph-name="uni1EAC" unicode="&#x1eac;" horiz-adv-x="637" 
d="M398 784l-79 84l-78 -84h-81l131 134h57l131 -134h-81zM287 700h63l283 -700h-72l-87 221h-312l-87 -221h-70zM318 615l-131 -331h262zM318 -55c29 0 51 -22 51 -50c0 -29 -22 -51 -51 -51c-28 0 -49 22 -49 51c0 28 21 50 49 50z" />
    <glyph glyph-name="uni1EA6" unicode="&#x1ea6;" horiz-adv-x="637" 
d="M437 962l60 -93h-65l-69 93h74zM398 771l-79 84l-78 -84h-81l131 134h57l131 -134h-81zM287 700h63l283 -700h-72l-87 221h-312l-87 -221h-70zM318 615l-131 -331h262z" />
    <glyph glyph-name="uni1EA8" unicode="&#x1ea8;" horiz-adv-x="637" 
d="M430 939c-16 0 -28 -11 -38 -27l-44 26c15 36 47 56 85 56c52 0 84 -32 84 -72c0 -24 -12 -43 -33 -64h-60c22 27 33 43 33 56c0 16 -10 25 -27 25zM397 771l-79 84l-78 -84h-81l131 134h57l131 -134h-81zM287 700h63l283 -700h-72l-87 221h-312l-87 -221h-70zM318 615
l-131 -331h262z" />
    <glyph glyph-name="uni1EAA" unicode="&#x1eaa;" horiz-adv-x="637" 
d="M263 936c-16 0 -31 -9 -31 -42h-58c0 73 48 97 89 97c68 0 84 -47 117 -47c16 0 31 10 31 42h58c0 -73 -48 -96 -89 -96c-68 0 -84 46 -117 46zM392 769l-73 57l-72 -57h-87l133 104h53l133 -104h-87zM287 700h63l283 -700h-72l-87 221h-312l-87 -221h-70zM318 615
l-131 -331h262z" />
    <glyph glyph-name="Adieresis" unicode="&#xc4;" horiz-adv-x="637" 
d="M209 796c-26 0 -45 18 -45 45s19 45 45 45s45 -18 45 -45s-19 -45 -45 -45zM429 796c-26 0 -45 18 -45 45s19 45 45 45s45 -18 45 -45s-19 -45 -45 -45zM633 0h-72l-87 221h-312l-87 -221h-70l282 700h63zM449 284l-131 331l-131 -331h262z" />
    <glyph glyph-name="uni1EA0" unicode="&#x1ea0;" horiz-adv-x="637" 
d="M5 0l282 700h63l283 -700h-72l-87 221h-312l-87 -221h-70zM449 284l-131 331l-131 -331h262zM318 -156c-28 0 -49 22 -49 51c0 28 21 50 49 50c29 0 51 -22 51 -50c0 -29 -22 -51 -51 -51z" />
    <glyph glyph-name="Agrave" unicode="&#xc0;" horiz-adv-x="637" 
d="M366 784h-65l-95 134h74zM162 221l-87 -221h-70l282 700h63l283 -700h-72l-87 221h-312zM318 615l-131 -331h262z" />
    <glyph glyph-name="uni1EA2" unicode="&#x1ea2;" horiz-adv-x="637" 
d="M367 765h-62c25 33 37 56 37 70c0 16 -10 25 -27 25s-30 -13 -40 -30l-44 26c15 37 48 59 87 59c52 0 84 -32 84 -72c0 -29 -17 -57 -35 -78zM474 221h-312l-87 -221h-70l282 700h63l283 -700h-72zM449 284l-131 331l-131 -331h262z" />
    <glyph glyph-name="Amacron" unicode="&#x100;" horiz-adv-x="637" 
d="M467 812h-295v59h295v-59zM633 0h-72l-87 221h-312l-87 -221h-70l282 700h63zM318 615l-131 -331h262z" />
    <glyph glyph-name="Aogonek" unicode="&#x104;" horiz-adv-x="637" 
d="M606 -109h39v-59h-43c-63 0 -94 31 -94 70c0 24 12 51 38 75l25 23h-10l-87 221h-312l-87 -221h-70l282 700h63l283 -700l-38 -39c-15 -15 -22 -30 -22 -43c0 -16 12 -27 33 -27zM318 615l-131 -331h262z" />
    <glyph glyph-name="Aring" unicode="&#xc5;" horiz-adv-x="637" 
d="M320 755c-62 0 -112 39 -112 98s50 99 112 99s111 -40 111 -99s-49 -98 -111 -98zM320 805c33 0 56 19 56 48s-23 48 -56 48s-56 -19 -56 -48s23 -48 56 -48zM287 700h63l283 -700h-72l-87 221h-312l-87 -221h-70zM187 284h262l-131 331z" />
    <glyph glyph-name="Atilde" unicode="&#xc3;" horiz-adv-x="637" 
d="M380 789c-68 0 -84 64 -117 64c-16 0 -31 -11 -31 -58h-58c0 91 48 115 89 115c68 0 84 -64 117 -64c16 0 31 11 31 58h58c0 -91 -48 -115 -89 -115zM162 221l-87 -221h-70l282 700h63l283 -700h-72l-87 221h-312zM187 284h262l-131 331z" />
    <glyph glyph-name="AE" unicode="&#xc6;" horiz-adv-x="968" 
d="M-13 0l501 700h446v-63h-370v-253h331v-63h-331v-258h370v-63h-437v201h-289l-142 -201h-79zM253 264h244v344z" />
    <glyph glyph-name="uni01E2" unicode="&#x1e2;" horiz-adv-x="968" 
d="M854 812h-295v59h295v-59zM-13 0l501 700h446v-63h-370v-253h331v-63h-331v-258h370v-63h-437v201h-289l-142 -201h-79zM253 264h244v344z" />
    <glyph glyph-name="B" unicode="B" horiz-adv-x="623" 
d="M441 372c87 -16 150 -76 150 -173c0 -137 -102 -199 -244 -199h-277v700h254c138 0 234 -55 234 -182c0 -76 -47 -128 -117 -146zM324 637h-187v-239h187c97 0 164 26 164 120c0 92 -67 119 -164 119zM347 335h-210v-272h210c105 0 174 33 174 136s-69 136 -174 136z" />
    <glyph glyph-name="C" unicode="C" horiz-adv-x="700" 
d="M378 -9c-199 0 -342 146 -342 359s143 359 342 359c144 0 255 -79 305 -206l-63 -29c-39 107 -129 170 -242 170c-155 0 -272 -112 -272 -294s117 -294 272 -294c113 0 203 63 242 170l63 -29c-50 -127 -161 -206 -305 -206z" />
    <glyph glyph-name="Cacute" unicode="&#x106;" horiz-adv-x="700" 
d="M396 784h-65l86 134h74zM378 -9c-199 0 -342 146 -342 359s143 359 342 359c144 0 255 -79 305 -206l-63 -29c-39 107 -129 170 -242 170c-155 0 -272 -112 -272 -294s117 -294 272 -294c113 0 203 63 242 170l63 -29c-50 -127 -161 -206 -305 -206z" />
    <glyph glyph-name="Ccaron" unicode="&#x10c;" horiz-adv-x="700" 
d="M538 918l-131 -134h-57l-131 134h81l79 -84l78 84h81zM378 56c113 0 203 63 242 170l63 -29c-50 -127 -161 -206 -305 -206c-199 0 -342 146 -342 359s143 359 342 359c144 0 255 -79 305 -206l-63 -29c-39 107 -129 170 -242 170c-155 0 -272 -112 -272 -294
s117 -294 272 -294z" />
    <glyph glyph-name="Ccedilla" unicode="&#xc7;" horiz-adv-x="700" 
d="M378 56c113 0 203 63 242 170l63 -29c-46 -116 -143 -192 -269 -204l17 -16c26 -24 38 -51 38 -75c0 -39 -31 -70 -94 -70h-58v59h54c21 0 33 11 33 27c0 13 -7 28 -22 43l-30 31c-185 12 -316 154 -316 358c0 213 143 359 342 359c144 0 255 -79 305 -206l-63 -29
c-39 107 -129 170 -242 170c-155 0 -272 -112 -272 -294s117 -294 272 -294z" />
    <glyph glyph-name="Ccircumflex" unicode="&#x108;" horiz-adv-x="700" 
d="M457 784l-79 84l-78 -84h-81l131 134h57l131 -134h-81zM378 56c113 0 203 63 242 170l63 -29c-50 -127 -161 -206 -305 -206c-199 0 -342 146 -342 359s143 359 342 359c144 0 255 -79 305 -206l-63 -29c-39 107 -129 170 -242 170c-155 0 -272 -112 -272 -294
s117 -294 272 -294z" />
    <glyph glyph-name="Cdotaccent" unicode="&#x10a;" horiz-adv-x="700" 
d="M377 796c-28 0 -49 22 -49 51c0 28 21 50 49 50c29 0 51 -22 51 -50c0 -29 -22 -51 -51 -51zM378 -9c-199 0 -342 146 -342 359s143 359 342 359c144 0 255 -79 305 -206l-63 -29c-39 107 -129 170 -242 170c-155 0 -272 -112 -272 -294s117 -294 272 -294
c113 0 203 63 242 170l63 -29c-50 -127 -161 -206 -305 -206z" />
    <glyph glyph-name="D" unicode="D" horiz-adv-x="708" 
d="M315 0h-245v700h245c219 0 357 -135 357 -350s-138 -350 -357 -350zM314 637h-177v-574h177c187 0 288 113 288 287c0 175 -101 287 -288 287z" />
    <glyph glyph-name="uni01F1" unicode="&#x1f1;" horiz-adv-x="1226" 
d="M315 700c219 0 357 -135 357 -350s-138 -350 -357 -350h-245v700h245zM1204 648l-418 -585h419v-63h-506v52l418 585h-411v63h498v-52zM137 63h177c187 0 288 113 288 287c0 175 -101 287 -288 287h-177v-574z" />
    <glyph glyph-name="uni01C4" unicode="&#x1c4;" horiz-adv-x="1226" 
d="M1114 918l-131 -134h-57l-131 134h81l79 -84l78 84h81zM70 700h245c219 0 357 -135 357 -350s-138 -350 -357 -350h-245v700zM1204 648l-418 -585h419v-63h-506v52l418 585h-411v63h498v-52zM137 63h177c187 0 288 113 288 287c0 175 -101 287 -288 287h-177v-574z" />
    <glyph glyph-name="Eth" unicode="&#xd0;" horiz-adv-x="737" 
d="M99 700h245c219 0 357 -135 357 -350s-138 -350 -357 -350h-245v321h-89v63h89v316zM166 63h177c187 0 288 113 288 287c0 175 -101 287 -288 287h-177v-253h164v-63h-164v-258z" />
    <glyph glyph-name="Dcaron" unicode="&#x10e;" horiz-adv-x="708" 
d="M487 918l-131 -134h-57l-131 134h81l79 -84l78 84h81zM70 700h245c219 0 357 -135 357 -350s-138 -350 -357 -350h-245v700zM137 63h177c187 0 288 113 288 287c0 175 -101 287 -288 287h-177v-574z" />
    <glyph glyph-name="Dcroat" unicode="&#x110;" horiz-adv-x="737" 
d="M99 700h245c219 0 357 -135 357 -350s-138 -350 -357 -350h-245v321h-89v63h89v316zM166 63h177c187 0 288 113 288 287c0 175 -101 287 -288 287h-177v-253h164v-63h-164v-258z" />
    <glyph glyph-name="uni1E0C" unicode="&#x1e0c;" horiz-adv-x="708" 
d="M315 0h-245v700h245c219 0 357 -135 357 -350s-138 -350 -357 -350zM314 637h-177v-574h177c187 0 288 113 288 287c0 175 -101 287 -288 287zM341 -156c-28 0 -49 22 -49 51c0 28 21 50 49 50c29 0 51 -22 51 -50c0 -29 -22 -51 -51 -51z" />
    <glyph glyph-name="uni1E0E" unicode="&#x1e0e;" horiz-adv-x="708" 
d="M315 0h-245v700h245c219 0 357 -135 357 -350s-138 -350 -357 -350zM314 637h-177v-574h177c187 0 288 113 288 287c0 175 -101 287 -288 287zM489 -134h-295v59h295v-59z" />
    <glyph glyph-name="uni01F2" unicode="&#x1f2;" horiz-adv-x="1152" 
d="M70 700h245c219 0 357 -135 357 -350s-138 -350 -357 -350h-245v700zM137 63h177c187 0 288 113 288 287c0 175 -101 287 -288 287h-177v-574zM1122 452l-306 -393h313v-59h-401v47l310 394h-297v59h381v-48z" />
    <glyph glyph-name="uni01C5" unicode="&#x1c5;" horiz-adv-x="1152" 
d="M1095 718l-131 -134h-57l-131 134h81l79 -84l78 84h81zM70 700h245c219 0 357 -135 357 -350s-138 -350 -357 -350h-245v700zM137 63h177c187 0 288 113 288 287c0 175 -101 287 -288 287h-177v-574zM1122 452l-306 -393h313v-59h-401v47l310 394h-297v59h381v-48z" />
    <glyph glyph-name="E" unicode="E" horiz-adv-x="569" 
d="M70 0v700h465v-63h-398v-253h359v-63h-359v-258h398v-63h-465z" />
    <glyph glyph-name="Eacute" unicode="&#xc9;" horiz-adv-x="569" 
d="M319 784h-65l86 134h74zM70 700h465v-63h-398v-253h359v-63h-359v-258h398v-63h-465v700z" />
    <glyph glyph-name="Ebreve" unicode="&#x114;" horiz-adv-x="569" 
d="M301 780c-80 0 -145 52 -145 138h61c0 -54 35 -83 84 -83s84 29 84 83h61c0 -86 -65 -138 -145 -138zM70 0v700h465v-63h-398v-253h359v-63h-359v-258h398v-63h-465z" />
    <glyph glyph-name="Ecaron" unicode="&#x11a;" horiz-adv-x="569" 
d="M461 918l-131 -134h-57l-131 134h81l79 -84l78 84h81zM535 700v-63h-398v-253h359v-63h-359v-258h398v-63h-465v700h465z" />
    <glyph glyph-name="Ecircumflex" unicode="&#xca;" horiz-adv-x="569" 
d="M380 784l-79 84l-78 -84h-81l131 134h57l131 -134h-81zM535 700v-63h-398v-253h359v-63h-359v-258h398v-63h-465v700h465z" />
    <glyph glyph-name="uni1EBE" unicode="&#x1ebe;" horiz-adv-x="569" 
d="M454 962h74l-69 -93h-65zM380 771l-79 84l-78 -84h-81l131 134h57l131 -134h-81zM535 700v-63h-398v-253h359v-63h-359v-258h398v-63h-465v700h465z" />
    <glyph glyph-name="uni1EC6" unicode="&#x1ec6;" horiz-adv-x="569" 
d="M380 784l-79 84l-78 -84h-81l131 134h57l131 -134h-81zM535 700v-63h-398v-253h359v-63h-359v-258h398v-63h-465v700h465zM300 -55c29 0 51 -22 51 -50c0 -29 -22 -51 -51 -51c-28 0 -49 22 -49 51c0 28 21 50 49 50z" />
    <glyph glyph-name="uni1EC0" unicode="&#x1ec0;" horiz-adv-x="569" 
d="M419 962l60 -93h-65l-69 93h74zM380 771l-79 84l-78 -84h-81l131 134h57l131 -134h-81zM535 700v-63h-398v-253h359v-63h-359v-258h398v-63h-465v700h465z" />
    <glyph glyph-name="uni1EC2" unicode="&#x1ec2;" horiz-adv-x="569" 
d="M412 939c-16 0 -28 -11 -38 -27l-44 26c15 36 47 56 85 56c52 0 84 -32 84 -72c0 -24 -12 -43 -33 -64h-60c22 27 33 43 33 56c0 16 -10 25 -27 25zM379 771l-79 84l-78 -84h-81l131 134h57l131 -134h-81zM535 700v-63h-398v-253h359v-63h-359v-258h398v-63h-465v700h465
z" />
    <glyph glyph-name="uni1EC4" unicode="&#x1ec4;" horiz-adv-x="569" 
d="M245 936c-16 0 -31 -9 -31 -42h-58c0 73 48 97 89 97c68 0 84 -47 117 -47c16 0 31 10 31 42h58c0 -73 -48 -96 -89 -96c-68 0 -84 46 -117 46zM374 769l-73 57l-72 -57h-87l133 104h53l133 -104h-87zM535 700v-63h-398v-253h359v-63h-359v-258h398v-63h-465v700h465z
" />
    <glyph glyph-name="Edieresis" unicode="&#xcb;" horiz-adv-x="569" 
d="M191 796c-26 0 -45 18 -45 45s19 45 45 45s45 -18 45 -45s-19 -45 -45 -45zM411 796c-26 0 -45 18 -45 45s19 45 45 45s45 -18 45 -45s-19 -45 -45 -45zM70 0v700h465v-63h-398v-253h359v-63h-359v-258h398v-63h-465z" />
    <glyph glyph-name="Edotaccent" unicode="&#x116;" horiz-adv-x="569" 
d="M300 796c-28 0 -49 22 -49 51c0 28 21 50 49 50c29 0 51 -22 51 -50c0 -29 -22 -51 -51 -51zM535 0h-465v700h465v-63h-398v-253h359v-63h-359v-258h398v-63z" />
    <glyph glyph-name="uni1EB8" unicode="&#x1eb8;" horiz-adv-x="569" 
d="M535 63v-63h-465v700h465v-63h-398v-253h359v-63h-359v-258h398zM300 -156c-28 0 -49 22 -49 51c0 28 21 50 49 50c29 0 51 -22 51 -50c0 -29 -22 -51 -51 -51z" />
    <glyph glyph-name="Egrave" unicode="&#xc8;" horiz-adv-x="569" 
d="M348 784h-65l-95 134h74zM137 63h398v-63h-465v700h465v-63h-398v-253h359v-63h-359v-258z" />
    <glyph glyph-name="uni1EBA" unicode="&#x1eba;" horiz-adv-x="569" 
d="M349 765h-62c25 33 37 56 37 70c0 16 -10 25 -27 25s-30 -13 -40 -30l-44 26c15 37 48 59 87 59c52 0 84 -32 84 -72c0 -29 -17 -57 -35 -78zM137 321v-258h398v-63h-465v700h465v-63h-398v-253h359v-63h-359z" />
    <glyph glyph-name="Emacron" unicode="&#x112;" horiz-adv-x="569" 
d="M449 812h-295v59h295v-59zM496 384v-63h-359v-258h398v-63h-465v700h465v-63h-398v-253h359z" />
    <glyph glyph-name="Eogonek" unicode="&#x118;" horiz-adv-x="569" 
d="M535 700v-63h-398v-253h359v-63h-359v-258h398v-63h-53l-38 -39c-15 -15 -22 -30 -22 -43c0 -16 12 -27 33 -27h39v-59h-43c-63 0 -94 31 -94 70c0 24 12 51 38 75l25 23h-350v700h465z" />
    <glyph glyph-name="uni1EBC" unicode="&#x1ebc;" horiz-adv-x="569" 
d="M362 789c-68 0 -84 64 -117 64c-16 0 -31 -11 -31 -58h-58c0 91 48 115 89 115c68 0 84 -64 117 -64c16 0 31 11 31 58h58c0 -91 -48 -115 -89 -115zM535 700v-63h-398v-253h359v-63h-359v-258h398v-63h-465v700h465z" />
    <glyph glyph-name="F" unicode="F" horiz-adv-x="544" 
d="M70 700h457v-64h-390v-266h353v-63h-353v-307h-67v700z" />
    <glyph glyph-name="G" unicode="G" horiz-adv-x="735" 
d="M631 298h-256v63h328v-21c0 -214 -131 -348 -328 -348c-192 0 -339 138 -339 358s147 359 342 359c134 0 249 -67 310 -211l-61 -30c-48 117 -137 176 -250 176c-152 0 -271 -110 -271 -294s119 -294 269 -294c143 0 239 89 256 242z" />
    <glyph glyph-name="Gbreve" unicode="&#x11e;" horiz-adv-x="735" 
d="M375 780c-80 0 -145 52 -145 138h61c0 -54 35 -83 84 -83s84 29 84 83h61c0 -86 -65 -138 -145 -138zM631 298h-256v63h328v-21c0 -214 -131 -348 -328 -348c-192 0 -339 138 -339 358s147 359 342 359c134 0 249 -67 310 -211l-61 -30c-48 117 -137 176 -250 176
c-152 0 -271 -110 -271 -294s119 -294 269 -294c143 0 239 89 256 242z" />
    <glyph glyph-name="Gcaron" unicode="&#x1e6;" horiz-adv-x="735" 
d="M535 918l-131 -134h-57l-131 134h81l79 -84l78 84h81zM375 298v63h328v-21c0 -214 -131 -348 -328 -348c-192 0 -339 138 -339 358s147 359 342 359c134 0 249 -67 310 -211l-61 -30c-48 117 -137 176 -250 176c-152 0 -271 -110 -271 -294s119 -294 269 -294
c143 0 239 89 256 242h-256z" />
    <glyph glyph-name="Gcircumflex" unicode="&#x11c;" horiz-adv-x="735" 
d="M454 784l-79 84l-78 -84h-81l131 134h57l131 -134h-81zM375 298v63h328v-21c0 -214 -131 -348 -328 -348c-192 0 -339 138 -339 358s147 359 342 359c134 0 249 -67 310 -211l-61 -30c-48 117 -137 176 -250 176c-152 0 -271 -110 -271 -294s119 -294 269 -294
c143 0 239 89 256 242h-256z" />
    <glyph glyph-name="uni0122" unicode="&#x122;" horiz-adv-x="735" 
d="M375 298v63h328v-21c0 -214 -131 -348 -328 -348c-192 0 -339 138 -339 358s147 359 342 359c134 0 249 -67 310 -211l-61 -30c-48 117 -137 176 -250 176c-152 0 -271 -110 -271 -294s119 -294 269 -294c143 0 239 89 256 242h-256zM374 -47c29 0 51 -20 51 -45
c0 -12 -2 -22 -18 -48l-38 -60l-38 23l28 44c-21 4 -34 22 -34 41c0 25 21 45 49 45z" />
    <glyph glyph-name="Gdotaccent" unicode="&#x120;" horiz-adv-x="735" 
d="M374 796c-28 0 -49 22 -49 51c0 28 21 50 49 50c29 0 51 -22 51 -50c0 -29 -22 -51 -51 -51zM631 298h-256v63h328v-21c0 -214 -131 -348 -328 -348c-192 0 -339 138 -339 358s147 359 342 359c134 0 249 -67 310 -211l-61 -30c-48 117 -137 176 -250 176
c-152 0 -271 -110 -271 -294s119 -294 269 -294c143 0 239 89 256 242z" />
    <glyph glyph-name="H" unicode="H" horiz-adv-x="691" 
d="M554 0v321h-417v-321h-67v700h67v-316h417v316h67v-700h-67z" />
    <glyph glyph-name="Hbar" unicode="&#x126;" horiz-adv-x="737" 
d="M644 562h81v-57h-81v-505h-67v321h-417v-321h-67v505h-81v57h81v138h67v-138h417v138h67v-138zM160 384h417v121h-417v-121z" />
    <glyph glyph-name="uni1E2A" unicode="&#x1e2a;" horiz-adv-x="691" 
d="M137 384h417v316h67v-700h-67v321h-417v-321h-67v700h67v-316zM341 -188c-80 0 -145 52 -145 138h61c0 -54 35 -83 84 -83s84 29 84 83h61c0 -86 -65 -138 -145 -138z" />
    <glyph glyph-name="uni1E28" unicode="&#x1e28;" horiz-adv-x="691" 
d="M554 384v316h67v-700h-67v321h-417v-321h-5l25 -23c26 -24 38 -51 38 -75c0 -39 -31 -70 -94 -70h-58v59h54c21 0 33 11 33 27c0 13 -7 28 -22 43l-38 39v700h67v-316h417z" />
    <glyph glyph-name="Hcircumflex" unicode="&#x124;" horiz-adv-x="691" 
d="M420 784l-79 84l-78 -84h-81l131 134h57l131 -134h-81zM554 384v316h67v-700h-67v321h-417v-321h-67v700h67v-316h417z" />
    <glyph glyph-name="uni1E24" unicode="&#x1e24;" horiz-adv-x="691" 
d="M554 321h-417v-321h-67v700h67v-316h417v316h67v-700h-67v321zM340 -156c-28 0 -49 22 -49 51c0 28 21 50 49 50c29 0 51 -22 51 -50c0 -29 -22 -51 -51 -51z" />
    <glyph glyph-name="I" unicode="I" horiz-adv-x="207" 
d="M70 700h67v-700h-67v700z" />
    <glyph glyph-name="Iacute" unicode="&#xcd;" horiz-adv-x="207" 
d="M121 784h-65l86 134h74zM70 0v700h67v-700h-67z" />
    <glyph glyph-name="Ibreve" unicode="&#x12c;" horiz-adv-x="207" 
d="M103 780c-80 0 -145 52 -145 138h61c0 -54 35 -83 84 -83s84 29 84 83h61c0 -86 -65 -138 -145 -138zM137 0h-67v700h67v-700z" />
    <glyph glyph-name="uni01CF" unicode="&#x1cf;" horiz-adv-x="207" 
d="M263 918l-131 -134h-57l-131 134h81l79 -84l78 84h81zM137 0h-67v700h67v-700z" />
    <glyph glyph-name="Icircumflex" unicode="&#xce;" horiz-adv-x="207" 
d="M75 918h57l131 -134h-81l-79 84l-78 -84h-81zM137 0h-67v700h67v-700z" />
    <glyph glyph-name="Idieresis" unicode="&#xcf;" horiz-adv-x="207" 
d="M-7 796c-26 0 -45 18 -45 45s19 45 45 45s45 -18 45 -45s-19 -45 -45 -45zM213 796c-26 0 -45 18 -45 45s19 45 45 45s45 -18 45 -45s-19 -45 -45 -45zM137 0h-67v700h67v-700z" />
    <glyph glyph-name="Idotaccent" unicode="&#x130;" horiz-adv-x="207" 
d="M102 796c-28 0 -49 22 -49 51c0 28 21 50 49 50c29 0 51 -22 51 -50c0 -29 -22 -51 -51 -51zM70 700h67v-700h-67v700z" />
    <glyph glyph-name="uni1ECA" unicode="&#x1eca;" horiz-adv-x="207" 
d="M70 0v700h67v-700h-67zM102 -156c-28 0 -49 22 -49 51c0 28 21 50 49 50c29 0 51 -22 51 -50c0 -29 -22 -51 -51 -51z" />
    <glyph glyph-name="Igrave" unicode="&#xcc;" horiz-adv-x="207" 
d="M150 784h-65l-95 134h74zM137 0h-67v700h67v-700z" />
    <glyph glyph-name="uni1EC8" unicode="&#x1ec8;" horiz-adv-x="207" 
d="M151 765h-62c25 33 37 56 37 70c0 16 -10 25 -27 25s-30 -13 -40 -30l-44 26c15 37 48 59 87 59c52 0 84 -32 84 -72c0 -29 -17 -57 -35 -78zM137 700v-700h-67v700h67z" />
    <glyph glyph-name="Imacron" unicode="&#x12a;" horiz-adv-x="207" 
d="M251 812h-295v59h295v-59zM70 0v700h67v-700h-67z" />
    <glyph glyph-name="Iogonek" unicode="&#x12e;" horiz-adv-x="207" 
d="M110 -109h39v-59h-43c-63 0 -94 31 -94 70c0 24 12 51 38 75l25 23h-5v700h67v-700l-38 -39c-15 -15 -22 -30 -22 -43c0 -16 12 -27 33 -27z" />
    <glyph glyph-name="Itilde" unicode="&#x128;" horiz-adv-x="207" 
d="M164 789c-68 0 -84 64 -117 64c-16 0 -31 -11 -31 -58h-58c0 91 48 115 89 115c68 0 84 -64 117 -64c16 0 31 11 31 58h58c0 -91 -48 -115 -89 -115zM137 700v-700h-67v700h67z" />
    <glyph glyph-name="J" unicode="J" horiz-adv-x="484" 
d="M212 -8c-102 0 -171 60 -206 136l54 34c24 -59 77 -106 150 -106c84 0 142 50 142 162v482h67v-487c0 -142 -89 -221 -207 -221z" />
    <glyph glyph-name="Jcircumflex" unicode="&#x134;" horiz-adv-x="484" 
d="M357 918h57l131 -134h-81l-79 84l-78 -84h-81zM352 218v482h67v-487c0 -142 -89 -221 -207 -221c-102 0 -171 60 -206 136l54 34c24 -59 77 -106 150 -106c84 0 142 50 142 162z" />
    <glyph glyph-name="K" unicode="K" horiz-adv-x="589" 
d="M70 700h67v-336l353 336h91l-368 -344l394 -356h-96l-374 338v-338h-67v700z" />
    <glyph glyph-name="uni0136" unicode="&#x136;" horiz-adv-x="589" 
d="M581 700l-368 -344l394 -356h-96l-374 338v-338h-67v700h67v-336l353 336h91zM302 -47c29 0 51 -20 51 -45c0 -12 -2 -22 -18 -48l-38 -60l-38 23l28 44c-21 4 -34 22 -34 41c0 25 21 45 49 45z" />
    <glyph glyph-name="uni1E32" unicode="&#x1e32;" horiz-adv-x="589" 
d="M137 700v-336l353 336h91l-368 -344l394 -356h-96l-374 338v-338h-67v700h67zM302 -156c-28 0 -49 22 -49 51c0 28 21 50 49 50c29 0 51 -22 51 -50c0 -29 -22 -51 -51 -51z" />
    <glyph glyph-name="L" unicode="L" horiz-adv-x="512" 
d="M500 64v-64h-430v700h67v-636h363z" />
    <glyph glyph-name="uni01C7" unicode="&#x1c7;" horiz-adv-x="1006" 
d="M137 700v-636h363v-64h-430v700h67zM734 -8c-102 0 -171 60 -206 136l54 34c24 -59 77 -106 150 -106c84 0 142 50 142 162v482h67v-487c0 -142 -89 -221 -207 -221z" />
    <glyph glyph-name="Lacute" unicode="&#x139;" horiz-adv-x="512" 
d="M121 784h-65l86 134h74zM70 700h67v-636h363v-64h-430v700z" />
    <glyph glyph-name="Lcaron" unicode="&#x13d;" horiz-adv-x="512" 
d="M70 0v700h67v-636h363v-64h-430zM265 512v188h59v-87l-20 -101h-39z" />
    <glyph glyph-name="uni013B" unicode="&#x13b;" horiz-adv-x="512" 
d="M137 700v-636h363v-64h-430v700h67zM284 -47c29 0 51 -20 51 -45c0 -12 -2 -22 -18 -48l-38 -60l-38 23l28 44c-21 4 -34 22 -34 41c0 25 21 45 49 45z" />
    <glyph glyph-name="Ldot" unicode="&#x13f;" horiz-adv-x="512" 
d="M137 64h363v-64h-430v700h67v-636zM358 291c-28 0 -49 22 -49 51c0 28 21 50 49 50c29 0 51 -22 51 -50c0 -29 -22 -51 -51 -51z" />
    <glyph glyph-name="uni1E36" unicode="&#x1e36;" horiz-adv-x="512" 
d="M137 700v-636h363v-64h-430v700h67zM284 -156c-28 0 -49 22 -49 51c0 28 21 50 49 50c29 0 51 -22 51 -50c0 -29 -22 -51 -51 -51z" />
    <glyph glyph-name="uni1E38" unicode="&#x1e38;" horiz-adv-x="512" 
d="M251 812h-295v59h295v-59zM70 700h67v-636h363v-64h-430v700zM284 -156c-28 0 -49 22 -49 51c0 28 21 50 49 50c29 0 51 -22 51 -50c0 -29 -22 -51 -51 -51z" />
    <glyph glyph-name="uni01C8" unicode="&#x1c8;" horiz-adv-x="693" 
d="M602 616c-28 0 -49 22 -49 51c0 28 21 50 49 50c29 0 51 -22 51 -50c0 -29 -22 -51 -51 -51zM70 0v700h67v-636h363v-64h-430zM570 -38v538h65v-541c0 -83 -41 -127 -110 -127h-23v61h17c33 0 51 22 51 69z" />
    <glyph glyph-name="uni1E3A" unicode="&#x1e3a;" horiz-adv-x="512" 
d="M500 0h-430v700h67v-636h363v-64zM432 -134h-295v59h295v-59z" />
    <glyph glyph-name="Lslash" unicode="&#x141;" horiz-adv-x="560" 
d="M185 311v-247h363v-64h-430v295l-106 -32v61l106 32v344h67v-328l217 66v-61z" />
    <glyph glyph-name="M" unicode="M" horiz-adv-x="789" 
d="M70 0v701h61l265 -370l263 370h60v-701h-67v579l-249 -348h-15l-251 348v-579h-67z" />
    <glyph glyph-name="uni1E40" unicode="&#x1e40;" horiz-adv-x="789" 
d="M394 796c-28 0 -49 22 -49 51c0 28 21 50 49 50c29 0 51 -22 51 -50c0 -29 -22 -51 -51 -51zM70 701h61l265 -370l263 370h60v-701h-67v579l-249 -348h-15l-251 348v-579h-67v701z" />
    <glyph glyph-name="uni1E42" unicode="&#x1e42;" horiz-adv-x="789" 
d="M70 0v701h61l265 -370l263 370h60v-701h-67v579l-249 -348h-15l-251 348v-579h-67zM394 -156c-28 0 -49 22 -49 51c0 28 21 50 49 50c29 0 51 -22 51 -50c0 -29 -22 -51 -51 -51z" />
    <glyph glyph-name="N" unicode="N" horiz-adv-x="702" 
d="M565 119v581h67v-700h-57l-438 581v-581h-67v700h57z" />
    <glyph glyph-name="uni01CA" unicode="&#x1ca;" horiz-adv-x="1186" 
d="M565 700h67v-700h-57l-438 581v-581h-67v700h57l438 -581v581zM914 -8c-102 0 -171 60 -206 136l54 34c24 -59 77 -106 150 -106c84 0 142 50 142 162v482h67v-487c0 -142 -89 -221 -207 -221z" />
    <glyph glyph-name="Nacute" unicode="&#x143;" horiz-adv-x="702" 
d="M369 784h-65l86 134h74zM565 119v581h67v-700h-57l-438 581v-581h-67v700h57z" />
    <glyph glyph-name="Ncaron" unicode="&#x147;" horiz-adv-x="702" 
d="M511 918l-131 -134h-57l-131 134h81l79 -84l78 84h81zM565 119v581h67v-700h-57l-438 581v-581h-67v700h57z" />
    <glyph glyph-name="uni0145" unicode="&#x145;" horiz-adv-x="702" 
d="M565 119v581h67v-700h-57l-438 581v-581h-67v700h57zM348 -47c29 0 51 -20 51 -45c0 -12 -2 -22 -18 -48l-38 -60l-38 23l28 44c-21 4 -34 22 -34 41c0 25 21 45 49 45z" />
    <glyph glyph-name="uni1E44" unicode="&#x1e44;" horiz-adv-x="702" 
d="M350 796c-28 0 -49 22 -49 51c0 28 21 50 49 50c29 0 51 -22 51 -50c0 -29 -22 -51 -51 -51zM137 0h-67v700h57l438 -581v581h67v-700h-57l-438 581v-581z" />
    <glyph glyph-name="uni1E46" unicode="&#x1e46;" horiz-adv-x="702" 
d="M137 581v-581h-67v700h57l438 -581v581h67v-700h-57zM348 -156c-28 0 -49 22 -49 51c0 28 21 50 49 50c29 0 51 -22 51 -50c0 -29 -22 -51 -51 -51z" />
    <glyph glyph-name="Eng" unicode="&#x14a;" horiz-adv-x="684" 
d="M374 709c144 0 246 -104 246 -284v-464c0 -81 -52 -134 -130 -134c-46 0 -80 17 -105 47l39 49c17 -20 40 -31 66 -31c38 0 63 26 63 72v453c0 153 -80 227 -188 227c-131 0 -228 -87 -228 -227v-417h-67v700h67v-120c48 81 132 129 237 129z" />
    <glyph glyph-name="uni01CB" unicode="&#x1cb;" horiz-adv-x="883" 
d="M792 616c-28 0 -49 22 -49 51c0 28 21 50 49 50c29 0 51 -22 51 -50c0 -29 -22 -51 -51 -51zM632 0h-57l-438 581v-581h-67v700h57l438 -581v581h67v-700zM760 -38v538h65v-541c0 -83 -41 -127 -110 -127h-23v61h17c33 0 51 22 51 69z" />
    <glyph glyph-name="uni1E48" unicode="&#x1e48;" horiz-adv-x="702" 
d="M632 700v-700h-57l-438 581v-581h-67v700h57l438 -581v581h67zM496 -134h-295v59h295v-59z" />
    <glyph glyph-name="Ntilde" unicode="&#xd1;" horiz-adv-x="702" 
d="M412 789c-68 0 -84 64 -117 64c-16 0 -31 -11 -31 -58h-58c0 91 48 115 89 115c68 0 84 -64 117 -64c16 0 31 11 31 58h58c0 -91 -48 -115 -89 -115zM565 700h67v-700h-57l-438 581v-581h-67v700h57l438 -581v581z" />
    <glyph glyph-name="O" unicode="O" horiz-adv-x="767" 
d="M384 -9c-205 0 -349 146 -349 359s144 359 349 359s348 -146 348 -359s-143 -359 -348 -359zM384 56c160 0 278 112 278 294s-118 294 -278 294s-279 -112 -279 -294s119 -294 279 -294z" />
    <glyph glyph-name="Oacute" unicode="&#xd3;" horiz-adv-x="767" 
d="M402 784h-65l86 134h74zM384 -9c-205 0 -349 146 -349 359s144 359 349 359s348 -146 348 -359s-143 -359 -348 -359zM384 56c160 0 278 112 278 294s-118 294 -278 294s-279 -112 -279 -294s119 -294 279 -294z" />
    <glyph glyph-name="Obreve" unicode="&#x14e;" horiz-adv-x="767" 
d="M384 780c-80 0 -145 52 -145 138h61c0 -54 35 -83 84 -83s84 29 84 83h61c0 -86 -65 -138 -145 -138zM384 -9c-205 0 -349 146 -349 359s144 359 349 359s348 -146 348 -359s-143 -359 -348 -359zM384 56c160 0 278 112 278 294s-118 294 -278 294s-279 -112 -279 -294
s119 -294 279 -294z" />
    <glyph glyph-name="uni01D1" unicode="&#x1d1;" horiz-adv-x="767" 
d="M544 918l-131 -134h-57l-131 134h81l79 -84l78 84h81zM384 709c205 0 348 -146 348 -359s-143 -359 -348 -359s-349 146 -349 359s144 359 349 359zM384 56c160 0 278 112 278 294s-118 294 -278 294s-279 -112 -279 -294s119 -294 279 -294z" />
    <glyph glyph-name="Ocircumflex" unicode="&#xd4;" horiz-adv-x="767" 
d="M463 784l-79 84l-78 -84h-81l131 134h57l131 -134h-81zM384 709c205 0 348 -146 348 -359s-143 -359 -348 -359s-349 146 -349 359s144 359 349 359zM384 56c160 0 278 112 278 294s-118 294 -278 294s-279 -112 -279 -294s119 -294 279 -294z" />
    <glyph glyph-name="uni1ED0" unicode="&#x1ed0;" horiz-adv-x="767" 
d="M537 962h74l-69 -93h-65zM463 771l-79 84l-78 -84h-81l131 134h57l131 -134h-81zM384 709c205 0 348 -146 348 -359s-143 -359 -348 -359s-349 146 -349 359s144 359 349 359zM384 56c160 0 278 112 278 294s-118 294 -278 294s-279 -112 -279 -294s119 -294 279 -294z
" />
    <glyph glyph-name="uni1ED8" unicode="&#x1ed8;" horiz-adv-x="767" 
d="M463 784l-79 84l-78 -84h-81l131 134h57l131 -134h-81zM384 709c205 0 348 -146 348 -359s-143 -359 -348 -359s-349 146 -349 359s144 359 349 359zM384 56c160 0 278 112 278 294s-118 294 -278 294s-279 -112 -279 -294s119 -294 279 -294zM383 -55
c29 0 51 -22 51 -50c0 -29 -22 -51 -51 -51c-28 0 -49 22 -49 51c0 28 21 50 49 50z" />
    <glyph glyph-name="uni1ED2" unicode="&#x1ed2;" horiz-adv-x="767" 
d="M502 962l60 -93h-65l-69 93h74zM463 771l-79 84l-78 -84h-81l131 134h57l131 -134h-81zM384 709c205 0 348 -146 348 -359s-143 -359 -348 -359s-349 146 -349 359s144 359 349 359zM384 56c160 0 278 112 278 294s-118 294 -278 294s-279 -112 -279 -294
s119 -294 279 -294z" />
    <glyph glyph-name="uni1ED4" unicode="&#x1ed4;" horiz-adv-x="767" 
d="M495 939c-16 0 -28 -11 -38 -27l-44 26c15 36 47 56 85 56c52 0 84 -32 84 -72c0 -24 -12 -43 -33 -64h-60c22 27 33 43 33 56c0 16 -10 25 -27 25zM462 771l-79 84l-78 -84h-81l131 134h57l131 -134h-81zM384 709c205 0 348 -146 348 -359s-143 -359 -348 -359
s-349 146 -349 359s144 359 349 359zM384 56c160 0 278 112 278 294s-118 294 -278 294s-279 -112 -279 -294s119 -294 279 -294z" />
    <glyph glyph-name="uni1ED6" unicode="&#x1ed6;" horiz-adv-x="767" 
d="M328 936c-16 0 -31 -9 -31 -42h-58c0 73 48 97 89 97c68 0 84 -47 117 -47c16 0 31 10 31 42h58c0 -73 -48 -96 -89 -96c-68 0 -84 46 -117 46zM457 769l-73 57l-72 -57h-87l133 104h53l133 -104h-87zM384 709c205 0 348 -146 348 -359s-143 -359 -348 -359
s-349 146 -349 359s144 359 349 359zM384 56c160 0 278 112 278 294s-118 294 -278 294s-279 -112 -279 -294s119 -294 279 -294z" />
    <glyph glyph-name="Odieresis" unicode="&#xd6;" horiz-adv-x="767" 
d="M274 796c-26 0 -45 18 -45 45s19 45 45 45s45 -18 45 -45s-19 -45 -45 -45zM494 796c-26 0 -45 18 -45 45s19 45 45 45s45 -18 45 -45s-19 -45 -45 -45zM384 -9c-205 0 -349 146 -349 359s144 359 349 359s348 -146 348 -359s-143 -359 -348 -359zM384 56
c160 0 278 112 278 294s-118 294 -278 294s-279 -112 -279 -294s119 -294 279 -294z" />
    <glyph glyph-name="uni1ECC" unicode="&#x1ecc;" horiz-adv-x="767" 
d="M384 -9c-205 0 -349 146 -349 359s144 359 349 359s348 -146 348 -359s-143 -359 -348 -359zM384 56c160 0 278 112 278 294s-118 294 -278 294s-279 -112 -279 -294s119 -294 279 -294zM383 -156c-28 0 -49 22 -49 51c0 28 21 50 49 50c29 0 51 -22 51 -50
c0 -29 -22 -51 -51 -51z" />
    <glyph glyph-name="Ograve" unicode="&#xd2;" horiz-adv-x="767" 
d="M431 784h-65l-95 134h74zM384 -9c-205 0 -349 146 -349 359s144 359 349 359s348 -146 348 -359s-143 -359 -348 -359zM384 56c160 0 278 112 278 294s-118 294 -278 294s-279 -112 -279 -294s119 -294 279 -294z" />
    <glyph glyph-name="uni1ECE" unicode="&#x1ece;" horiz-adv-x="767" 
d="M432 765h-62c25 33 37 56 37 70c0 16 -10 25 -27 25s-30 -13 -40 -30l-44 26c15 37 48 59 87 59c52 0 84 -32 84 -72c0 -29 -17 -57 -35 -78zM384 -9c-205 0 -349 146 -349 359s144 359 349 359s348 -146 348 -359s-143 -359 -348 -359zM384 56c160 0 278 112 278 294
s-118 294 -278 294s-279 -112 -279 -294s119 -294 279 -294z" />
    <glyph glyph-name="Ohorn" unicode="&#x1a0;" horiz-adv-x="784" 
d="M688 764v32h67v-37c0 -84 -52 -122 -119 -122h-45c88 -60 141 -162 141 -287c0 -213 -143 -359 -348 -359s-349 146 -349 359s144 359 349 359c30 0 58 -3 84 -9h161c37 0 59 18 59 64zM662 350c0 182 -118 294 -278 294s-279 -112 -279 -294s119 -294 279 -294
s278 112 278 294z" />
    <glyph glyph-name="uni1EDA" unicode="&#x1eda;" horiz-adv-x="784" 
d="M402 784h-65l86 134h74zM688 796h67v-37c0 -84 -52 -122 -119 -122h-45c88 -60 141 -162 141 -287c0 -213 -143 -359 -348 -359s-349 146 -349 359s144 359 349 359c30 0 58 -3 84 -9h161c37 0 59 18 59 64v32zM662 350c0 182 -118 294 -278 294s-279 -112 -279 -294
s119 -294 279 -294s278 112 278 294z" />
    <glyph glyph-name="uni1EE2" unicode="&#x1ee2;" horiz-adv-x="784" 
d="M688 764v32h67v-37c0 -84 -52 -122 -119 -122h-45c88 -60 141 -162 141 -287c0 -213 -143 -359 -348 -359s-349 146 -349 359s144 359 349 359c30 0 58 -3 84 -9h161c37 0 59 18 59 64zM662 350c0 182 -118 294 -278 294s-279 -112 -279 -294s119 -294 279 -294
s278 112 278 294zM383 -156c-28 0 -49 22 -49 51c0 28 21 50 49 50c29 0 51 -22 51 -50c0 -29 -22 -51 -51 -51z" />
    <glyph glyph-name="uni1EDC" unicode="&#x1edc;" horiz-adv-x="784" 
d="M431 784h-65l-95 134h74zM688 764v32h67v-37c0 -84 -52 -122 -119 -122h-45c88 -60 141 -162 141 -287c0 -213 -143 -359 -348 -359s-349 146 -349 359s144 359 349 359c30 0 58 -3 84 -9h161c37 0 59 18 59 64zM662 350c0 182 -118 294 -278 294s-279 -112 -279 -294
s119 -294 279 -294s278 112 278 294z" />
    <glyph glyph-name="uni1EDE" unicode="&#x1ede;" horiz-adv-x="784" 
d="M432 765h-62c25 33 37 56 37 70c0 16 -10 25 -27 25s-30 -13 -40 -30l-44 26c15 37 48 59 87 59c52 0 84 -32 84 -72c0 -29 -17 -57 -35 -78zM688 764v32h67v-37c0 -84 -52 -122 -119 -122h-45c88 -60 141 -162 141 -287c0 -213 -143 -359 -348 -359s-349 146 -349 359
s144 359 349 359c30 0 58 -3 84 -9h161c37 0 59 18 59 64zM662 350c0 182 -118 294 -278 294s-279 -112 -279 -294s119 -294 279 -294s278 112 278 294z" />
    <glyph glyph-name="uni1EE0" unicode="&#x1ee0;" horiz-adv-x="784" 
d="M445 789c-68 0 -84 64 -117 64c-16 0 -31 -11 -31 -58h-58c0 91 48 115 89 115c68 0 84 -64 117 -64c16 0 31 11 31 58h58c0 -91 -48 -115 -89 -115zM688 764v32h67v-37c0 -84 -52 -122 -119 -122h-45c88 -60 141 -162 141 -287c0 -213 -143 -359 -348 -359
s-349 146 -349 359s144 359 349 359c30 0 58 -3 84 -9h161c37 0 59 18 59 64zM662 350c0 182 -118 294 -278 294s-279 -112 -279 -294s119 -294 279 -294s278 112 278 294z" />
    <glyph glyph-name="Ohungarumlaut" unicode="&#x150;" horiz-adv-x="767" 
d="M411 918l-95 -134h-65l86 134h74zM598 918l-95 -134h-65l86 134h74zM384 -9c-205 0 -349 146 -349 359s144 359 349 359s348 -146 348 -359s-143 -359 -348 -359zM384 56c160 0 278 112 278 294s-118 294 -278 294s-279 -112 -279 -294s119 -294 279 -294z" />
    <glyph glyph-name="Omacron" unicode="&#x14c;" horiz-adv-x="767" 
d="M532 812h-295v59h295v-59zM384 -9c-205 0 -349 146 -349 359s144 359 349 359s348 -146 348 -359s-143 -359 -348 -359zM384 56c160 0 278 112 278 294s-118 294 -278 294s-279 -112 -279 -294s119 -294 279 -294z" />
    <glyph glyph-name="Oslash" unicode="&#xd8;" horiz-adv-x="767" 
d="M608 634l81 86l43 -41l-81 -87c51 -62 81 -145 81 -242c0 -213 -143 -359 -348 -359c-89 0 -166 27 -225 76l-80 -86l-44 40l82 87c-52 62 -82 145 -82 242c0 213 144 359 349 359c88 0 165 -27 224 -75zM105 350c0 -78 22 -142 59 -191l398 425c-47 39 -109 60 -178 60
c-160 0 -279 -112 -279 -294zM662 350c0 78 -22 143 -59 192l-398 -426c48 -39 110 -60 179 -60c160 0 278 112 278 294z" />
    <glyph glyph-name="Otilde" unicode="&#xd5;" horiz-adv-x="767" 
d="M445 789c-68 0 -84 64 -117 64c-16 0 -31 -11 -31 -58h-58c0 91 48 115 89 115c68 0 84 -64 117 -64c16 0 31 11 31 58h58c0 -91 -48 -115 -89 -115zM384 -9c-205 0 -349 146 -349 359s144 359 349 359s348 -146 348 -359s-143 -359 -348 -359zM384 56
c160 0 278 112 278 294s-118 294 -278 294s-279 -112 -279 -294s119 -294 279 -294z" />
    <glyph glyph-name="OE" unicode="&#x152;" horiz-adv-x="1159" 
d="M1125 700v-63h-398v-253h359v-63h-359v-258h398v-63h-465v142c-57 -94 -157 -151 -279 -151c-203 0 -346 146 -346 359s143 359 346 359c122 0 222 -57 279 -151v142h465zM384 56c160 0 278 112 278 294s-118 294 -278 294s-279 -112 -279 -294s119 -294 279 -294z" />
    <glyph glyph-name="P" unicode="P" horiz-adv-x="590" 
d="M70 0v700h243c154 0 254 -81 254 -222s-100 -223 -254 -223h-176v-255h-67zM306 637h-169v-319h169c121 0 191 54 191 160s-70 159 -191 159z" />
    <glyph glyph-name="Thorn" unicode="&#xde;" horiz-adv-x="588" 
d="M137 573h162c162 0 259 -81 259 -222s-97 -223 -259 -223h-162v-128h-67v700h67v-127zM137 191h160c121 0 191 54 191 160s-70 159 -191 159h-160v-319z" />
    <glyph glyph-name="Q" unicode="Q" horiz-adv-x="767" 
d="M732 350c0 -111 -39 -203 -104 -266l98 -124l-48 -38l-99 123c-54 -35 -120 -54 -195 -54c-205 0 -349 146 -349 359s144 359 349 359s348 -146 348 -359zM384 56c58 0 110 15 153 42l-86 108l49 38l85 -107c48 51 77 123 77 213c0 182 -118 294 -278 294
s-279 -112 -279 -294s119 -294 279 -294z" />
    <glyph glyph-name="R" unicode="R" horiz-adv-x="619" 
d="M379 278l224 -278h-83l-217 275h-166v-275h-67v700h265c145 0 237 -77 237 -212c0 -117 -78 -194 -193 -210zM329 637h-192v-299h192c112 0 173 53 173 150s-62 149 -173 149z" />
    <glyph glyph-name="Racute" unicode="&#x154;" horiz-adv-x="619" 
d="M309 784h-65l86 134h74zM379 278l224 -278h-83l-217 275h-166v-275h-67v700h265c145 0 237 -77 237 -212c0 -117 -78 -194 -193 -210zM329 637h-192v-299h192c112 0 173 53 173 150s-62 149 -173 149z" />
    <glyph glyph-name="Rcaron" unicode="&#x158;" horiz-adv-x="619" 
d="M451 918l-131 -134h-57l-131 134h81l79 -84l78 84h81zM379 278l224 -278h-83l-217 275h-166v-275h-67v700h265c145 0 237 -77 237 -212c0 -117 -78 -194 -193 -210zM137 637v-299h192c112 0 173 53 173 150s-62 149 -173 149h-192z" />
    <glyph glyph-name="uni0156" unicode="&#x156;" horiz-adv-x="619" 
d="M379 278l224 -278h-83l-217 275h-166v-275h-67v700h265c145 0 237 -77 237 -212c0 -117 -78 -194 -193 -210zM137 637v-299h192c112 0 173 53 173 150s-62 149 -173 149h-192zM318 -47c29 0 51 -20 51 -45c0 -12 -2 -22 -18 -48l-38 -60l-38 23l28 44
c-21 4 -34 22 -34 41c0 25 21 45 49 45z" />
    <glyph glyph-name="uni1E58" unicode="&#x1e58;" horiz-adv-x="619" 
d="M290 796c-28 0 -49 22 -49 51c0 28 21 50 49 50c29 0 51 -22 51 -50c0 -29 -22 -51 -51 -51zM379 278l224 -278h-83l-217 275h-166v-275h-67v700h265c145 0 237 -77 237 -212c0 -117 -78 -194 -193 -210zM329 637h-192v-299h192c112 0 173 53 173 150s-62 149 -173 149z
" />
    <glyph glyph-name="uni1E5A" unicode="&#x1e5a;" horiz-adv-x="619" 
d="M379 278l224 -278h-83l-217 275h-166v-275h-67v700h265c145 0 237 -77 237 -212c0 -117 -78 -194 -193 -210zM329 637h-192v-299h192c112 0 173 53 173 150s-62 149 -173 149zM318 -156c-28 0 -49 22 -49 51c0 28 21 50 49 50c29 0 51 -22 51 -50c0 -29 -22 -51 -51 -51z
" />
    <glyph glyph-name="uni1E5C" unicode="&#x1e5c;" horiz-adv-x="619" 
d="M439 812h-295v59h295v-59zM379 278l224 -278h-83l-217 275h-166v-275h-67v700h265c145 0 237 -77 237 -212c0 -117 -78 -194 -193 -210zM329 637h-192v-299h192c112 0 173 53 173 150s-62 149 -173 149zM318 -156c-28 0 -49 22 -49 51c0 28 21 50 49 50
c29 0 51 -22 51 -50c0 -29 -22 -51 -51 -51z" />
    <glyph glyph-name="uni1E5E" unicode="&#x1e5e;" horiz-adv-x="619" 
d="M379 278l224 -278h-83l-217 275h-166v-275h-67v700h265c145 0 237 -77 237 -212c0 -117 -78 -194 -193 -210zM329 637h-192v-299h192c112 0 173 53 173 150s-62 149 -173 149zM466 -134h-295v59h295v-59z" />
    <glyph glyph-name="S" unicode="S" horiz-adv-x="591" 
d="M305 -9c-164 0 -259 90 -286 220l65 16c24 -110 100 -171 221 -171c113 0 186 46 186 120c0 62 -44 104 -167 136l-100 26c-111 29 -173 93 -173 181c0 112 97 190 239 190c141 0 233 -70 262 -203l-65 -16c-23 108 -98 154 -195 154c-100 0 -170 -47 -170 -118
c0 -68 43 -99 134 -124l99 -27c139 -38 206 -104 206 -192c0 -116 -100 -192 -256 -192z" />
    <glyph glyph-name="Sacute" unicode="&#x15a;" horiz-adv-x="591" 
d="M311 784h-65l86 134h74zM305 -9c-164 0 -259 90 -286 220l65 16c24 -110 100 -171 221 -171c113 0 186 46 186 120c0 62 -44 104 -167 136l-100 26c-111 29 -173 93 -173 181c0 112 97 190 239 190c141 0 233 -70 262 -203l-65 -16c-23 108 -98 154 -195 154
c-100 0 -170 -47 -170 -118c0 -68 43 -99 134 -124l99 -27c139 -38 206 -104 206 -192c0 -116 -100 -192 -256 -192z" />
    <glyph glyph-name="Scaron" unicode="&#x160;" horiz-adv-x="591" 
d="M453 918l-131 -134h-57l-131 134h81l79 -84l78 84h81zM256 402l99 -27c139 -38 206 -104 206 -192c0 -116 -100 -192 -256 -192c-164 0 -259 90 -286 220l65 16c24 -110 100 -171 221 -171c113 0 186 46 186 120c0 62 -44 104 -167 136l-100 26c-111 29 -173 93 -173 181
c0 112 97 190 239 190c141 0 233 -70 262 -203l-65 -16c-23 108 -98 154 -195 154c-100 0 -170 -47 -170 -118c0 -68 43 -99 134 -124z" />
    <glyph glyph-name="Scedilla" unicode="&#x15e;" horiz-adv-x="591" 
d="M561 183c0 -107 -85 -180 -220 -191l17 -15c26 -24 38 -51 38 -75c0 -39 -31 -70 -94 -70h-58v59h54c21 0 33 11 33 27c0 13 -7 28 -22 43l-30 31c-148 9 -234 96 -260 219l65 16c24 -110 100 -171 221 -171c113 0 186 46 186 120c0 62 -44 104 -167 136l-100 26
c-111 29 -173 93 -173 181c0 112 97 190 239 190c141 0 233 -70 262 -203l-65 -16c-23 108 -98 154 -195 154c-100 0 -170 -47 -170 -118c0 -68 43 -99 134 -124l99 -27c139 -38 206 -104 206 -192z" />
    <glyph glyph-name="Scircumflex" unicode="&#x15c;" horiz-adv-x="591" 
d="M372 784l-79 84l-78 -84h-81l131 134h57l131 -134h-81zM256 402l99 -27c139 -38 206 -104 206 -192c0 -116 -100 -192 -256 -192c-164 0 -259 90 -286 220l65 16c24 -110 100 -171 221 -171c113 0 186 46 186 120c0 62 -44 104 -167 136l-100 26
c-111 29 -173 93 -173 181c0 112 97 190 239 190c141 0 233 -70 262 -203l-65 -16c-23 108 -98 154 -195 154c-100 0 -170 -47 -170 -118c0 -68 43 -99 134 -124z" />
    <glyph glyph-name="uni0218" unicode="&#x218;" horiz-adv-x="591" 
d="M256 402l99 -27c139 -38 206 -104 206 -192c0 -116 -100 -192 -256 -192c-164 0 -259 90 -286 220l65 16c24 -110 100 -171 221 -171c113 0 186 46 186 120c0 62 -44 104 -167 136l-100 26c-111 29 -173 93 -173 181c0 112 97 190 239 190c141 0 233 -70 262 -203
l-65 -16c-23 108 -98 154 -195 154c-100 0 -170 -47 -170 -118c0 -68 43 -99 134 -124zM304 -47c29 0 51 -20 51 -45c0 -12 -2 -22 -18 -48l-38 -60l-38 23l28 44c-21 4 -34 22 -34 41c0 25 21 45 49 45z" />
    <glyph glyph-name="uni1E62" unicode="&#x1e62;" horiz-adv-x="591" 
d="M305 -9c-164 0 -259 90 -286 220l65 16c24 -110 100 -171 221 -171c113 0 186 46 186 120c0 62 -44 104 -167 136l-100 26c-111 29 -173 93 -173 181c0 112 97 190 239 190c141 0 233 -70 262 -203l-65 -16c-23 108 -98 154 -195 154c-100 0 -170 -47 -170 -118
c0 -68 43 -99 134 -124l99 -27c139 -38 206 -104 206 -192c0 -116 -100 -192 -256 -192zM304 -156c-28 0 -49 22 -49 51c0 28 21 50 49 50c29 0 51 -22 51 -50c0 -29 -22 -51 -51 -51z" />
    <glyph glyph-name="uni1E9E" unicode="&#x1e9e;" horiz-adv-x="681" 
d="M596 576l-171 -184c119 -2 230 -72 230 -198c0 -137 -112 -203 -230 -203c-114 0 -177 43 -226 111l53 43c30 -50 89 -90 173 -90c89 0 160 54 160 139s-72 139 -182 139h-70v50l175 187c-31 42 -87 74 -177 74c-121 0 -199 -73 -199 -193v-451h-68v455
c0 145 96 253 268 253c134 0 217 -60 264 -132z" />
    <glyph glyph-name="uni018F" unicode="&#x18f;" horiz-adv-x="737" 
d="M356 709c197 0 346 -139 346 -359s-147 -358 -339 -358c-197 0 -328 134 -328 348v21h597c-5 177 -124 283 -275 283c-114 0 -207 -61 -255 -183l-61 31c56 138 174 217 315 217zM363 56c135 0 245 89 266 242h-522c17 -154 114 -242 256 -242z" />
    <glyph glyph-name="T" unicode="T" horiz-adv-x="553" 
d="M541 700v-64h-231v-636h-67v636h-231v64h529z" />
    <glyph glyph-name="Tbar" unicode="&#x166;" horiz-adv-x="553" 
d="M541 700v-64h-231v-273h142v-63h-142v-300h-67v300h-142v63h142v273h-231v64h529z" />
    <glyph glyph-name="Tcaron" unicode="&#x164;" horiz-adv-x="553" 
d="M437 918l-131 -134h-57l-131 134h81l79 -84l78 84h81zM12 636v64h529v-64h-231v-636h-67v636h-231z" />
    <glyph glyph-name="uni0162" unicode="&#x162;" horiz-adv-x="553" 
d="M541 636h-231v-636h-5l25 -23c26 -24 38 -51 38 -75c0 -39 -31 -70 -94 -70h-58v59h54c21 0 33 11 33 27c0 13 -7 28 -22 43l-38 39v636h-231v64h529v-64z" />
    <glyph glyph-name="uni021A" unicode="&#x21a;" horiz-adv-x="553" 
d="M12 636v64h529v-64h-231v-636h-67v636h-231zM276 -47c29 0 51 -20 51 -45c0 -12 -2 -22 -18 -48l-38 -60l-38 23l28 44c-21 4 -34 22 -34 41c0 25 21 45 49 45z" />
    <glyph glyph-name="uni1E6C" unicode="&#x1e6c;" horiz-adv-x="553" 
d="M541 636h-231v-636h-67v636h-231v64h529v-64zM276 -156c-28 0 -49 22 -49 51c0 28 21 50 49 50c29 0 51 -22 51 -50c0 -29 -22 -51 -51 -51z" />
    <glyph glyph-name="uni1E6E" unicode="&#x1e6e;" horiz-adv-x="553" 
d="M541 700v-64h-231v-636h-67v636h-231v64h529zM424 -134h-295v59h295v-59z" />
    <glyph glyph-name="U" unicode="U" horiz-adv-x="679" 
d="M549 286v414h67v-419c0 -193 -122 -289 -276 -289s-277 96 -277 289v419h68v-414c0 -157 89 -230 209 -230c119 0 209 73 209 230z" />
    <glyph glyph-name="Uacute" unicode="&#xda;" horiz-adv-x="679" 
d="M358 784h-65l86 134h74zM549 286v414h67v-419c0 -193 -122 -289 -276 -289s-277 96 -277 289v419h68v-414c0 -157 89 -230 209 -230c119 0 209 73 209 230z" />
    <glyph glyph-name="Ubreve" unicode="&#x16c;" horiz-adv-x="679" 
d="M340 780c-80 0 -145 52 -145 138h61c0 -54 35 -83 84 -83s84 29 84 83h61c0 -86 -65 -138 -145 -138zM549 286v414h67v-419c0 -193 -122 -289 -276 -289s-277 96 -277 289v419h68v-414c0 -157 89 -230 209 -230c119 0 209 73 209 230z" />
    <glyph glyph-name="uni01D3" unicode="&#x1d3;" horiz-adv-x="679" 
d="M500 918l-131 -134h-57l-131 134h81l79 -84l78 84h81zM549 286v414h67v-419c0 -193 -122 -289 -276 -289s-277 96 -277 289v419h68v-414c0 -157 89 -230 209 -230c119 0 209 73 209 230z" />
    <glyph glyph-name="Ucircumflex" unicode="&#xdb;" horiz-adv-x="679" 
d="M419 784l-79 84l-78 -84h-81l131 134h57l131 -134h-81zM549 286v414h67v-419c0 -193 -122 -289 -276 -289s-277 96 -277 289v419h68v-414c0 -157 89 -230 209 -230c119 0 209 73 209 230z" />
    <glyph glyph-name="Udieresis" unicode="&#xdc;" horiz-adv-x="679" 
d="M230 796c-26 0 -45 18 -45 45s19 45 45 45s45 -18 45 -45s-19 -45 -45 -45zM450 796c-26 0 -45 18 -45 45s19 45 45 45s45 -18 45 -45s-19 -45 -45 -45zM549 286v414h67v-419c0 -193 -122 -289 -276 -289s-277 96 -277 289v419h68v-414c0 -157 89 -230 209 -230
c119 0 209 73 209 230z" />
    <glyph glyph-name="uni01D7" unicode="&#x1d7;" horiz-adv-x="679" 
d="M362 893h-65l60 93h74zM230 756c-26 0 -45 18 -45 45s19 45 45 45s45 -18 45 -45s-19 -45 -45 -45zM450 756c-26 0 -45 18 -45 45s19 45 45 45s45 -18 45 -45s-19 -45 -45 -45zM549 286v414h67v-419c0 -193 -122 -289 -276 -289s-277 96 -277 289v419h68v-414
c0 -157 89 -230 209 -230c119 0 209 73 209 230z" />
    <glyph glyph-name="uni01D9" unicode="&#x1d9;" horiz-adv-x="679" 
d="M500 997l-131 -104h-57l-131 104h84l76 -57l75 57h84zM185 801c0 27 19 45 45 45s45 -18 45 -45s-19 -45 -45 -45s-45 18 -45 45zM405 801c0 27 19 45 45 45s45 -18 45 -45s-19 -45 -45 -45s-45 18 -45 45zM549 286v414h67v-419c0 -193 -122 -289 -276 -289
s-277 96 -277 289v419h68v-414c0 -157 89 -230 209 -230c119 0 209 73 209 230z" />
    <glyph glyph-name="uni01DB" unicode="&#x1db;" horiz-adv-x="679" 
d="M393 893h-65l-69 93h74zM230 756c-26 0 -45 18 -45 45s19 45 45 45s45 -18 45 -45s-19 -45 -45 -45zM450 756c-26 0 -45 18 -45 45s19 45 45 45s45 -18 45 -45s-19 -45 -45 -45zM549 286v414h67v-419c0 -193 -122 -289 -276 -289s-277 96 -277 289v419h68v-414
c0 -157 89 -230 209 -230c119 0 209 73 209 230z" />
    <glyph glyph-name="uni01D5" unicode="&#x1d5;" horiz-adv-x="679" 
d="M488 956h-295v59h295v-59zM230 756c-26 0 -45 18 -45 45s19 45 45 45s45 -18 45 -45s-19 -45 -45 -45zM450 756c-26 0 -45 18 -45 45s19 45 45 45s45 -18 45 -45s-19 -45 -45 -45zM549 286v414h67v-419c0 -193 -122 -289 -276 -289s-277 96 -277 289v419h68v-414
c0 -157 89 -230 209 -230c119 0 209 73 209 230z" />
    <glyph glyph-name="uni1EE4" unicode="&#x1ee4;" horiz-adv-x="679" 
d="M549 286v414h67v-419c0 -193 -122 -289 -276 -289s-277 96 -277 289v419h68v-414c0 -157 89 -230 209 -230c119 0 209 73 209 230zM338 -156c-28 0 -49 22 -49 51c0 28 21 50 49 50c29 0 51 -22 51 -50c0 -29 -22 -51 -51 -51z" />
    <glyph glyph-name="Ugrave" unicode="&#xd9;" horiz-adv-x="679" 
d="M387 784h-65l-95 134h74zM549 286v414h67v-419c0 -193 -122 -289 -276 -289s-277 96 -277 289v419h68v-414c0 -157 89 -230 209 -230c119 0 209 73 209 230z" />
    <glyph glyph-name="uni1EE6" unicode="&#x1ee6;" horiz-adv-x="679" 
d="M388 765h-62c25 33 37 56 37 70c0 16 -10 25 -27 25s-30 -13 -40 -30l-44 26c15 37 48 59 87 59c52 0 84 -32 84 -72c0 -29 -17 -57 -35 -78zM549 286v414h67v-419c0 -193 -122 -289 -276 -289s-277 96 -277 289v419h68v-414c0 -157 89 -230 209 -230
c119 0 209 73 209 230z" />
    <glyph glyph-name="Uhorn" unicode="&#x1af;" horiz-adv-x="782" 
d="M716 764v32h67v-37c0 -84 -52 -122 -119 -122h-48v-356c0 -193 -122 -289 -276 -289s-277 96 -277 289v419h68v-414c0 -157 89 -230 209 -230c119 0 209 73 209 230v414h108c37 0 59 18 59 64z" />
    <glyph glyph-name="uni1EE8" unicode="&#x1ee8;" horiz-adv-x="782" 
d="M358 784h-65l86 134h74zM716 764v32h67v-37c0 -84 -52 -122 -119 -122h-48v-356c0 -193 -122 -289 -276 -289s-277 96 -277 289v419h68v-414c0 -157 89 -230 209 -230c119 0 209 73 209 230v414h108c37 0 59 18 59 64z" />
    <glyph glyph-name="uni1EF0" unicode="&#x1ef0;" horiz-adv-x="782" 
d="M716 764v32h67v-37c0 -84 -52 -122 -119 -122h-48v-356c0 -193 -122 -289 -276 -289s-277 96 -277 289v419h68v-414c0 -157 89 -230 209 -230c119 0 209 73 209 230v414h108c37 0 59 18 59 64zM338 -156c-28 0 -49 22 -49 51c0 28 21 50 49 50c29 0 51 -22 51 -50
c0 -29 -22 -51 -51 -51z" />
    <glyph glyph-name="uni1EEA" unicode="&#x1eea;" horiz-adv-x="782" 
d="M387 784h-65l-95 134h74zM716 764v32h67v-37c0 -84 -52 -122 -119 -122h-48v-356c0 -193 -122 -289 -276 -289s-277 96 -277 289v419h68v-414c0 -157 89 -230 209 -230c119 0 209 73 209 230v414h108c37 0 59 18 59 64z" />
    <glyph glyph-name="uni1EEC" unicode="&#x1eec;" horiz-adv-x="782" 
d="M388 765h-62c25 33 37 56 37 70c0 16 -10 25 -27 25s-30 -13 -40 -30l-44 26c15 37 48 59 87 59c52 0 84 -32 84 -72c0 -29 -17 -57 -35 -78zM716 764v32h67v-37c0 -84 -52 -122 -119 -122h-48v-356c0 -193 -122 -289 -276 -289s-277 96 -277 289v419h68v-414
c0 -157 89 -230 209 -230c119 0 209 73 209 230v414h108c37 0 59 18 59 64z" />
    <glyph glyph-name="uni1EEE" unicode="&#x1eee;" horiz-adv-x="782" 
d="M401 789c-68 0 -84 64 -117 64c-16 0 -31 -11 -31 -58h-58c0 91 48 115 89 115c68 0 84 -64 117 -64c16 0 31 11 31 58h58c0 -91 -48 -115 -89 -115zM716 764v32h67v-37c0 -84 -52 -122 -119 -122h-48v-356c0 -193 -122 -289 -276 -289s-277 96 -277 289v419h68v-414
c0 -157 89 -230 209 -230c119 0 209 73 209 230v414h108c37 0 59 18 59 64z" />
    <glyph glyph-name="Uhungarumlaut" unicode="&#x170;" horiz-adv-x="679" 
d="M367 918l-95 -134h-65l86 134h74zM554 918l-95 -134h-65l86 134h74zM549 286v414h67v-419c0 -193 -122 -289 -276 -289s-277 96 -277 289v419h68v-414c0 -157 89 -230 209 -230c119 0 209 73 209 230z" />
    <glyph glyph-name="Umacron" unicode="&#x16a;" horiz-adv-x="679" 
d="M488 812h-295v59h295v-59zM549 286v414h67v-419c0 -193 -122 -289 -276 -289s-277 96 -277 289v419h68v-414c0 -157 89 -230 209 -230c119 0 209 73 209 230z" />
    <glyph glyph-name="Uogonek" unicode="&#x172;" horiz-adv-x="679" 
d="M549 286v414h67v-419c0 -161 -85 -255 -203 -281l-38 -39c-15 -15 -22 -30 -22 -43c0 -16 12 -27 33 -27h39v-59h-43c-63 0 -94 31 -94 70c0 24 12 51 38 75l16 15h-2c-154 0 -277 96 -277 289v419h68v-414c0 -157 89 -230 209 -230c119 0 209 73 209 230z" />
    <glyph glyph-name="Uring" unicode="&#x16e;" horiz-adv-x="679" 
d="M341 755c-62 0 -112 39 -112 98s50 99 112 99s111 -40 111 -99s-49 -98 -111 -98zM341 805c33 0 56 19 56 48s-23 48 -56 48s-56 -19 -56 -48s23 -48 56 -48zM549 286v414h67v-419c0 -193 -122 -289 -276 -289s-277 96 -277 289v419h68v-414c0 -157 89 -230 209 -230
c119 0 209 73 209 230z" />
    <glyph glyph-name="Utilde" unicode="&#x168;" horiz-adv-x="679" 
d="M401 789c-68 0 -84 64 -117 64c-16 0 -31 -11 -31 -58h-58c0 91 48 115 89 115c68 0 84 -64 117 -64c16 0 31 11 31 58h58c0 -91 -48 -115 -89 -115zM549 286v414h67v-419c0 -193 -122 -289 -276 -289s-277 96 -277 289v419h68v-414c0 -157 89 -230 209 -230
c119 0 209 73 209 230z" />
    <glyph glyph-name="V" unicode="V" horiz-adv-x="622" 
d="M7 700h72l233 -606l233 606h70l-272 -700h-63z" />
    <glyph glyph-name="W" unicode="W" horiz-adv-x="960" 
d="M228 -1l-218 701h70l180 -593l189 594h63l189 -592l181 591h68l-218 -701h-62l-190 592l-190 -592h-62z" />
    <glyph glyph-name="Wacute" unicode="&#x1e82;" horiz-adv-x="960" 
d="M498 784h-65l86 134h74zM512 701l189 -592l181 591h68l-218 -701h-62l-190 592l-190 -592h-62l-218 701h70l180 -593l189 594h63z" />
    <glyph glyph-name="Wcircumflex" unicode="&#x174;" horiz-adv-x="960" 
d="M559 784l-79 84l-78 -84h-81l131 134h57l131 -134h-81zM701 109l181 591h68l-218 -701h-62l-190 592l-190 -592h-62l-218 701h70l180 -593l189 594h63z" />
    <glyph glyph-name="Wdieresis" unicode="&#x1e84;" horiz-adv-x="960" 
d="M370 796c-26 0 -45 18 -45 45s19 45 45 45s45 -18 45 -45s-19 -45 -45 -45zM590 796c-26 0 -45 18 -45 45s19 45 45 45s45 -18 45 -45s-19 -45 -45 -45zM260 107l189 594h63l189 -592l181 591h68l-218 -701h-62l-190 592l-190 -592h-62l-218 701h70z" />
    <glyph glyph-name="uni1E88" unicode="&#x1e88;" horiz-adv-x="960" 
d="M10 700h70l180 -593l189 594h63l189 -592l181 591h68l-218 -701h-62l-190 592l-190 -592h-62zM480 -156c-28 0 -49 22 -49 51c0 28 21 50 49 50c29 0 51 -22 51 -50c0 -29 -22 -51 -51 -51z" />
    <glyph glyph-name="Wgrave" unicode="&#x1e80;" horiz-adv-x="960" 
d="M527 784h-65l-95 134h74zM228 -1l-218 701h70l180 -593l189 594h63l189 -592l181 591h68l-218 -701h-62l-190 592l-190 -592h-62z" />
    <glyph glyph-name="X" unicode="X" horiz-adv-x="605" 
d="M531 0l-229 305l-230 -305h-79l270 357l-258 343h81l217 -289l218 289h79l-257 -341l269 -359h-81z" />
    <glyph glyph-name="Y" unicode="Y" horiz-adv-x="651" 
d="M560 700h78l-279 -358v-342h-67v343l-280 357h80l234 -290z" />
    <glyph glyph-name="Yacute" unicode="&#xdd;" horiz-adv-x="651" 
d="M344 784h-65l86 134h74zM326 410l234 290h78l-279 -358v-342h-67v343l-280 357h80z" />
    <glyph glyph-name="Ycircumflex" unicode="&#x176;" horiz-adv-x="651" 
d="M405 784l-79 84l-78 -84h-81l131 134h57l131 -134h-81zM326 410l234 290h78l-279 -358v-342h-67v343l-280 357h80z" />
    <glyph glyph-name="Ydieresis" unicode="&#x178;" horiz-adv-x="651" 
d="M216 796c-26 0 -45 18 -45 45s19 45 45 45s45 -18 45 -45s-19 -45 -45 -45zM436 796c-26 0 -45 18 -45 45s19 45 45 45s45 -18 45 -45s-19 -45 -45 -45zM12 700h80l234 -290l234 290h78l-279 -358v-342h-67v343z" />
    <glyph glyph-name="uni1EF4" unicode="&#x1ef4;" horiz-adv-x="651" 
d="M292 0v343l-280 357h80l234 -290l234 290h78l-279 -358v-342h-67zM324 -156c-28 0 -49 22 -49 51c0 28 21 50 49 50c29 0 51 -22 51 -50c0 -29 -22 -51 -51 -51z" />
    <glyph glyph-name="Ygrave" unicode="&#x1ef2;" horiz-adv-x="651" 
d="M373 784h-65l-95 134h74zM359 0h-67v343l-280 357h80l234 -290l234 290h78l-279 -358v-342z" />
    <glyph glyph-name="uni1EF6" unicode="&#x1ef6;" horiz-adv-x="651" 
d="M374 765h-62c25 33 37 56 37 70c0 16 -10 25 -27 25s-30 -13 -40 -30l-44 26c15 37 48 59 87 59c52 0 84 -32 84 -72c0 -29 -17 -57 -35 -78zM359 342v-342h-67v343l-280 357h80l234 -290l234 290h78z" />
    <glyph glyph-name="uni0232" unicode="&#x232;" horiz-adv-x="651" 
d="M474 812h-295v59h295v-59zM638 700l-279 -358v-342h-67v343l-280 357h80l234 -290l234 290h78z" />
    <glyph glyph-name="uni1EF8" unicode="&#x1ef8;" horiz-adv-x="651" 
d="M387 789c-68 0 -84 64 -117 64c-16 0 -31 -11 -31 -58h-58c0 91 48 115 89 115c68 0 84 -64 117 -64c16 0 31 11 31 58h58c0 -91 -48 -115 -89 -115zM560 700h78l-279 -358v-342h-67v343l-280 357h80l234 -290z" />
    <glyph glyph-name="Z" unicode="Z" horiz-adv-x="546" 
d="M525 0h-506v52l418 585h-411v63h498v-52l-418 -585h419v-63z" />
    <glyph glyph-name="Zacute" unicode="&#x179;" horiz-adv-x="546" 
d="M292 784h-65l86 134h74zM26 700h498v-52l-418 -585h419v-63h-506v52l418 585h-411v63z" />
    <glyph glyph-name="Zcaron" unicode="&#x17d;" horiz-adv-x="546" 
d="M434 918l-131 -134h-57l-131 134h81l79 -84l78 84h81zM524 648l-418 -585h419v-63h-506v52l418 585h-411v63h498v-52z" />
    <glyph glyph-name="Zdotaccent" unicode="&#x17b;" horiz-adv-x="546" 
d="M273 796c-28 0 -49 22 -49 51c0 28 21 50 49 50c29 0 51 -22 51 -50c0 -29 -22 -51 -51 -51zM19 52l418 585h-411v63h498v-52l-418 -585h419v-63h-506v52z" />
    <glyph glyph-name="uni1E92" unicode="&#x1e92;" horiz-adv-x="546" 
d="M19 0v52l418 585h-411v63h498v-52l-418 -585h419v-63h-506zM271 -156c-28 0 -49 22 -49 51c0 28 21 50 49 50c29 0 51 -22 51 -50c0 -29 -22 -51 -51 -51z" />
    <glyph glyph-name="uni1E94" unicode="&#x1e94;" horiz-adv-x="546" 
d="M525 0h-506v52l418 585h-411v63h498v-52l-418 -585h419v-63zM419 -134h-295v59h295v-59z" />
    <glyph glyph-name="uni1E96.case" horiz-adv-x="691" 
d="M554 0v321h-417v-321h-67v700h67v-316h417v316h67v-700h-67zM489 -134h-295v59h295v-59z" />
    <glyph glyph-name="uni013B.latnMAH" horiz-adv-x="512" 
d="M137 64h363v-64h-187l25 -23c26 -24 38 -51 38 -75c0 -39 -31 -70 -94 -70h-58v59h54c21 0 33 11 33 27c0 13 -7 28 -22 43l-38 39h-181v700h67v-636z" />
    <glyph glyph-name="uni0145.latnMAH" horiz-adv-x="702" 
d="M565 119v581h67v-700h-57l-438 581v-581h-67v700h57zM346 -168h-58v59h54c21 0 33 11 33 27c0 13 -7 28 -22 43l-38 39l46 15l41 -38c26 -24 38 -51 38 -75c0 -39 -31 -70 -94 -70z" />
    <glyph glyph-name="Aogonek.latnNAV" horiz-adv-x="637" 
d="M474 221h-312l-87 -221h-70l282 700h63l283 -700h-72zM318 615l-131 -331h262zM385 -168h-43c-63 0 -94 31 -94 70c0 24 12 51 38 75l41 38l46 -15l-38 -39c-15 -15 -22 -30 -22 -43c0 -16 12 -27 33 -27h39v-59z" />
    <glyph glyph-name="Eogonek.latnNAV" horiz-adv-x="569" 
d="M535 700v-63h-398v-253h359v-63h-359v-258h398v-63h-178l-38 -39c-15 -15 -22 -30 -22 -43c0 -16 12 -27 33 -27h39v-59h-43c-63 0 -94 31 -94 70c0 24 12 51 38 75l25 23h-225v700h465z" />
    <glyph glyph-name="J.latnNLD" horiz-adv-x="484" 
d="M403 784h-65l86 134h74zM212 -8c-102 0 -171 60 -206 136l54 34c24 -59 77 -106 150 -106c84 0 142 50 142 162v482h67v-487c0 -142 -89 -221 -207 -221z" />
    <glyph glyph-name="Eng.latnNSM" horiz-adv-x="702" 
d="M565 119v581h67v-733c0 -76 -41 -134 -130 -134h-55v63h50c49 0 68 29 68 79v39l-428 567v-581h-67v700h57z" />
    <glyph glyph-name="a" unicode="a" horiz-adv-x="508" 
d="M243 508c106 0 212 -55 212 -196v-312h-65v51c-31 -39 -85 -60 -161 -60c-104 0 -203 52 -203 153s99 153 202 153c76 0 131 -22 162 -60v68c0 107 -73 144 -147 144s-129 -41 -145 -105l-56 18c21 92 102 146 201 146zM244 46c83 0 148 34 148 98s-65 98 -148 98
s-151 -32 -151 -98s68 -98 151 -98z" />
    <glyph glyph-name="aacute" unicode="&#xe1;" horiz-adv-x="508" 
d="M290 718h74l-95 -134h-65zM243 508c106 0 212 -55 212 -196v-312h-65v51c-31 -39 -85 -60 -161 -60c-104 0 -203 52 -203 153s99 153 202 153c76 0 131 -22 162 -60v68c0 107 -73 144 -147 144s-129 -41 -145 -105l-56 18c21 92 102 146 201 146zM244 46
c83 0 148 34 148 98s-65 98 -148 98s-151 -32 -151 -98s68 -98 151 -98z" />
    <glyph glyph-name="abreve" unicode="&#x103;" horiz-adv-x="508" 
d="M251 580c-80 0 -145 52 -145 138h61c0 -54 35 -83 84 -83s84 29 84 83h61c0 -86 -65 -138 -145 -138zM243 508c106 0 212 -55 212 -196v-312h-65v51c-31 -39 -85 -60 -161 -60c-104 0 -203 52 -203 153s99 153 202 153c76 0 131 -22 162 -60v68c0 107 -73 144 -147 144
s-129 -41 -145 -105l-56 18c21 92 102 146 201 146zM244 46c83 0 148 34 148 98s-65 98 -148 98s-151 -32 -151 -98s68 -98 151 -98z" />
    <glyph glyph-name="uni1EAF" unicode="&#x1eaf;" horiz-adv-x="508" 
d="M265 786h74l-69 -93h-65zM251 570c-67 0 -124 37 -140 100h63c13 -31 41 -47 77 -47s64 16 77 47h63c-16 -63 -73 -100 -140 -100zM243 508c106 0 212 -55 212 -196v-312h-65v51c-31 -39 -85 -60 -161 -60c-104 0 -203 52 -203 153s99 153 202 153c76 0 131 -22 162 -60
v68c0 107 -73 144 -147 144s-129 -41 -145 -105l-56 18c21 92 102 146 201 146zM244 46c83 0 148 34 148 98s-65 98 -148 98s-151 -32 -151 -98s68 -98 151 -98z" />
    <glyph glyph-name="uni1EB7" unicode="&#x1eb7;" horiz-adv-x="508" 
d="M251 580c-80 0 -145 52 -145 138h61c0 -54 35 -83 84 -83s84 29 84 83h61c0 -86 -65 -138 -145 -138zM243 508c106 0 212 -55 212 -196v-312h-65v51c-31 -39 -85 -60 -161 -60c-104 0 -203 52 -203 153s99 153 202 153c76 0 131 -22 162 -60v68c0 107 -73 144 -147 144
s-129 -41 -145 -105l-56 18c21 92 102 146 201 146zM244 46c83 0 148 34 148 98s-65 98 -148 98s-151 -32 -151 -98s68 -98 151 -98zM249 -55c29 0 51 -22 51 -50c0 -29 -22 -51 -51 -51c-28 0 -49 22 -49 51c0 28 21 50 49 50z" />
    <glyph glyph-name="uni1EB1" unicode="&#x1eb1;" horiz-adv-x="508" 
d="M235 786l60 -93h-65l-69 93h74zM251 570c-67 0 -124 37 -140 100h63c13 -31 41 -47 77 -47s64 16 77 47h63c-16 -63 -73 -100 -140 -100zM243 508c106 0 212 -55 212 -196v-312h-65v51c-31 -39 -85 -60 -161 -60c-104 0 -203 52 -203 153s99 153 202 153
c76 0 131 -22 162 -60v68c0 107 -73 144 -147 144s-129 -41 -145 -105l-56 18c21 92 102 146 201 146zM244 46c83 0 148 34 148 98s-65 98 -148 98s-151 -32 -151 -98s68 -98 151 -98z" />
    <glyph glyph-name="uni1EB3" unicode="&#x1eb3;" horiz-adv-x="508" 
d="M232 774c-17 0 -30 -13 -40 -30l-44 26c15 37 48 59 87 59c52 0 84 -32 84 -72c0 -24 -10 -43 -33 -64h-60c26 32 33 43 33 56c0 16 -10 25 -27 25zM251 570c-67 0 -124 37 -140 100h63c13 -31 41 -47 77 -47s64 16 77 47h63c-16 -63 -73 -100 -140 -100zM243 508
c106 0 212 -55 212 -196v-312h-65v51c-31 -39 -85 -60 -161 -60c-104 0 -203 52 -203 153s99 153 202 153c76 0 131 -22 162 -60v68c0 107 -73 144 -147 144s-129 -41 -145 -105l-56 18c21 92 102 146 201 146zM244 46c83 0 148 34 148 98s-65 98 -148 98s-151 -32 -151 -98
s68 -98 151 -98z" />
    <glyph glyph-name="uni1EB5" unicode="&#x1eb5;" horiz-adv-x="508" 
d="M194 739c-16 0 -31 -9 -31 -42h-58c0 71 47 94 88 94c68 0 84 -47 117 -47c16 0 31 10 31 42h58c0 -71 -47 -93 -88 -93c-68 0 -84 46 -117 46zM251 623c36 0 64 16 77 47h63c-16 -63 -73 -100 -140 -100s-124 37 -140 100h63c13 -31 41 -47 77 -47zM243 508
c106 0 212 -55 212 -196v-312h-65v51c-31 -39 -85 -60 -161 -60c-104 0 -203 52 -203 153s99 153 202 153c76 0 131 -22 162 -60v68c0 107 -73 144 -147 144s-129 -41 -145 -105l-56 18c21 92 102 146 201 146zM244 46c83 0 148 34 148 98s-65 98 -148 98s-151 -32 -151 -98
s68 -98 151 -98z" />
    <glyph glyph-name="uni01CE" unicode="&#x1ce;" horiz-adv-x="508" 
d="M411 718l-131 -134h-57l-131 134h81l79 -84l78 84h81zM243 508c106 0 212 -55 212 -196v-312h-65v51c-31 -39 -85 -60 -161 -60c-104 0 -203 52 -203 153s99 153 202 153c76 0 131 -22 162 -60v68c0 107 -73 144 -147 144s-129 -41 -145 -105l-56 18
c21 92 102 146 201 146zM244 46c83 0 148 34 148 98s-65 98 -148 98s-151 -32 -151 -98s68 -98 151 -98z" />
    <glyph glyph-name="acircumflex" unicode="&#xe2;" horiz-adv-x="508" 
d="M330 584l-79 84l-78 -84h-81l131 134h57l131 -134h-81zM243 508c106 0 212 -55 212 -196v-312h-65v51c-31 -39 -85 -60 -161 -60c-104 0 -203 52 -203 153s99 153 202 153c76 0 131 -22 162 -60v68c0 107 -73 144 -147 144s-129 -41 -145 -105l-56 18
c21 92 102 146 201 146zM244 46c83 0 148 34 148 98s-65 98 -148 98s-151 -32 -151 -98s68 -98 151 -98z" />
    <glyph glyph-name="uni1EA5" unicode="&#x1ea5;" horiz-adv-x="508" 
d="M404 762h74l-69 -93h-65zM330 571l-79 84l-78 -84h-81l131 134h57l131 -134h-81zM243 508c106 0 212 -55 212 -196v-312h-65v51c-31 -39 -85 -60 -161 -60c-104 0 -203 52 -203 153s99 153 202 153c76 0 131 -22 162 -60v68c0 107 -73 144 -147 144s-129 -41 -145 -105
l-56 18c21 92 102 146 201 146zM244 46c83 0 148 34 148 98s-65 98 -148 98s-151 -32 -151 -98s68 -98 151 -98z" />
    <glyph glyph-name="uni1EAD" unicode="&#x1ead;" horiz-adv-x="508" 
d="M330 584l-79 84l-78 -84h-81l131 134h57l131 -134h-81zM243 508c106 0 212 -55 212 -196v-312h-65v51c-31 -39 -85 -60 -161 -60c-104 0 -203 52 -203 153s99 153 202 153c76 0 131 -22 162 -60v68c0 107 -73 144 -147 144s-129 -41 -145 -105l-56 18
c21 92 102 146 201 146zM244 46c83 0 148 34 148 98s-65 98 -148 98s-151 -32 -151 -98s68 -98 151 -98zM249 -55c29 0 51 -22 51 -50c0 -29 -22 -51 -51 -51c-28 0 -49 22 -49 51c0 28 21 50 49 50z" />
    <glyph glyph-name="uni1EA7" unicode="&#x1ea7;" horiz-adv-x="508" 
d="M369 762l60 -93h-65l-69 93h74zM330 571l-79 84l-78 -84h-81l131 134h57l131 -134h-81zM243 508c106 0 212 -55 212 -196v-312h-65v51c-31 -39 -85 -60 -161 -60c-104 0 -203 52 -203 153s99 153 202 153c76 0 131 -22 162 -60v68c0 107 -73 144 -147 144
s-129 -41 -145 -105l-56 18c21 92 102 146 201 146zM244 46c83 0 148 34 148 98s-65 98 -148 98s-151 -32 -151 -98s68 -98 151 -98z" />
    <glyph glyph-name="uni1EA9" unicode="&#x1ea9;" horiz-adv-x="508" 
d="M362 739c-16 0 -28 -11 -38 -27l-44 26c15 36 47 56 85 56c52 0 84 -32 84 -72c0 -24 -12 -43 -33 -64h-60c22 27 33 43 33 56c0 16 -10 25 -27 25zM329 571l-79 84l-78 -84h-81l131 134h57l131 -134h-81zM243 508c106 0 212 -55 212 -196v-312h-65v51
c-31 -39 -85 -60 -161 -60c-104 0 -203 52 -203 153s99 153 202 153c76 0 131 -22 162 -60v68c0 107 -73 144 -147 144s-129 -41 -145 -105l-56 18c21 92 102 146 201 146zM244 46c83 0 148 34 148 98s-65 98 -148 98s-151 -32 -151 -98s68 -98 151 -98z" />
    <glyph glyph-name="uni1EAB" unicode="&#x1eab;" horiz-adv-x="508" 
d="M195 736c-16 0 -31 -9 -31 -42h-58c0 73 48 97 89 97c68 0 84 -47 117 -47c16 0 31 10 31 42h58c0 -73 -48 -96 -89 -96c-68 0 -84 46 -117 46zM324 569l-73 57l-72 -57h-87l133 104h53l133 -104h-87zM243 508c106 0 212 -55 212 -196v-312h-65v51
c-31 -39 -85 -60 -161 -60c-104 0 -203 52 -203 153s99 153 202 153c76 0 131 -22 162 -60v68c0 107 -73 144 -147 144s-129 -41 -145 -105l-56 18c21 92 102 146 201 146zM244 46c83 0 148 34 148 98s-65 98 -148 98s-151 -32 -151 -98s68 -98 151 -98z" />
    <glyph glyph-name="adieresis" unicode="&#xe4;" horiz-adv-x="508" 
d="M141 596c-26 0 -45 18 -45 45s19 45 45 45s45 -18 45 -45s-19 -45 -45 -45zM361 596c-26 0 -45 18 -45 45s19 45 45 45s45 -18 45 -45s-19 -45 -45 -45zM243 508c106 0 212 -55 212 -196v-312h-65v51c-31 -39 -85 -60 -161 -60c-104 0 -203 52 -203 153s99 153 202 153
c76 0 131 -22 162 -60v68c0 107 -73 144 -147 144s-129 -41 -145 -105l-56 18c21 92 102 146 201 146zM244 46c83 0 148 34 148 98s-65 98 -148 98s-151 -32 -151 -98s68 -98 151 -98z" />
    <glyph glyph-name="uni1EA1" unicode="&#x1ea1;" horiz-adv-x="508" 
d="M243 508c106 0 212 -55 212 -196v-312h-65v51c-31 -39 -85 -60 -161 -60c-104 0 -203 52 -203 153s99 153 202 153c76 0 131 -22 162 -60v68c0 107 -73 144 -147 144s-129 -41 -145 -105l-56 18c21 92 102 146 201 146zM244 46c83 0 148 34 148 98s-65 98 -148 98
s-151 -32 -151 -98s68 -98 151 -98zM249 -55c29 0 51 -22 51 -50c0 -29 -22 -51 -51 -51c-28 0 -49 22 -49 51c0 28 21 50 49 50z" />
    <glyph glyph-name="agrave" unicode="&#xe0;" horiz-adv-x="508" 
d="M212 718l86 -134h-65l-95 134h74zM243 508c106 0 212 -55 212 -196v-312h-65v51c-31 -39 -85 -60 -161 -60c-104 0 -203 52 -203 153s99 153 202 153c76 0 131 -22 162 -60v68c0 107 -73 144 -147 144s-129 -41 -145 -105l-56 18c21 92 102 146 201 146zM244 46
c83 0 148 34 148 98s-65 98 -148 98s-151 -32 -151 -98s68 -98 151 -98z" />
    <glyph glyph-name="uni1EA3" unicode="&#x1ea3;" horiz-adv-x="508" 
d="M247 660c-17 0 -30 -13 -40 -30l-44 26c15 37 48 59 87 59c52 0 84 -32 84 -72c0 -29 -17 -57 -35 -78h-62c25 33 37 56 37 70c0 16 -10 25 -27 25zM243 508c106 0 212 -55 212 -196v-312h-65v51c-31 -39 -85 -60 -161 -60c-104 0 -203 52 -203 153s99 153 202 153
c76 0 131 -22 162 -60v68c0 107 -73 144 -147 144s-129 -41 -145 -105l-56 18c21 92 102 146 201 146zM244 46c83 0 148 34 148 98s-65 98 -148 98s-151 -32 -151 -98s68 -98 151 -98z" />
    <glyph glyph-name="amacron" unicode="&#x101;" horiz-adv-x="508" 
d="M104 671h295v-59h-295v59zM243 508c106 0 212 -55 212 -196v-312h-65v51c-31 -39 -85 -60 -161 -60c-104 0 -203 52 -203 153s99 153 202 153c76 0 131 -22 162 -60v68c0 107 -73 144 -147 144s-129 -41 -145 -105l-56 18c21 92 102 146 201 146zM244 46
c83 0 148 34 148 98s-65 98 -148 98s-151 -32 -151 -98s68 -98 151 -98z" />
    <glyph glyph-name="aogonek" unicode="&#x105;" horiz-adv-x="508" 
d="M428 -109h39v-59h-43c-63 0 -94 31 -94 70c0 24 12 51 38 75l25 23h-3v51c-31 -39 -85 -60 -161 -60c-104 0 -203 52 -203 153s99 153 202 153c76 0 131 -22 162 -60v68c0 107 -73 144 -147 144s-129 -41 -145 -105l-56 18c21 92 102 146 201 146c106 0 212 -55 212 -196
v-312l-38 -39c-15 -15 -22 -30 -22 -43c0 -16 12 -27 33 -27zM244 46c83 0 148 34 148 98s-65 98 -148 98s-151 -32 -151 -98s68 -98 151 -98z" />
    <glyph glyph-name="aring" unicode="&#xe5;" horiz-adv-x="508" 
d="M252 555c-62 0 -112 39 -112 98s50 99 112 99s111 -40 111 -99s-49 -98 -111 -98zM252 701c-33 0 -56 -19 -56 -48s23 -48 56 -48s56 19 56 48s-23 48 -56 48zM243 508c106 0 212 -55 212 -196v-312h-65v51c-31 -39 -85 -60 -161 -60c-104 0 -203 52 -203 153
s99 153 202 153c76 0 131 -22 162 -60v68c0 107 -73 144 -147 144s-129 -41 -145 -105l-56 18c21 92 102 146 201 146zM244 46c83 0 148 34 148 98s-65 98 -148 98s-151 -32 -151 -98s68 -98 151 -98z" />
    <glyph glyph-name="atilde" unicode="&#xe3;" horiz-adv-x="508" 
d="M195 653c-16 0 -31 -11 -31 -58h-58c0 91 48 115 89 115c68 0 84 -64 117 -64c16 0 31 11 31 58h58c0 -91 -48 -115 -89 -115c-68 0 -84 64 -117 64zM243 508c106 0 212 -55 212 -196v-312h-65v51c-31 -39 -85 -60 -161 -60c-104 0 -203 52 -203 153s99 153 202 153
c76 0 131 -22 162 -60v68c0 107 -73 144 -147 144s-129 -41 -145 -105l-56 18c21 92 102 146 201 146zM244 46c83 0 148 34 148 98s-65 98 -148 98s-151 -32 -151 -98s68 -98 151 -98z" />
    <glyph glyph-name="ae" unicode="&#xe6;" horiz-adv-x="884" 
d="M851 257c0 -8 0 -14 -1 -21h-395c6 -118 79 -185 171 -185c71 0 132 31 166 117l56 -26c-49 -114 -137 -151 -225 -151c-80 0 -147 40 -187 107c-23 -66 -98 -107 -198 -107c-116 0 -212 52 -212 153s99 153 202 153c76 0 131 -22 162 -60v68c0 107 -73 144 -147 144
s-129 -41 -145 -105l-56 18c21 92 102 146 201 146c79 0 158 -33 189 -112c40 71 109 112 193 112c129 0 226 -99 226 -251zM624 448c-89 0 -153 -59 -166 -157h323c-12 105 -75 157 -157 157zM244 46c83 0 148 34 148 98s-65 98 -148 98s-151 -32 -151 -98s68 -98 151 -98z
" />
    <glyph glyph-name="uni01E3" unicode="&#x1e3;" horiz-adv-x="884" 
d="M578 612h-295v59h295v-59zM851 257c0 -8 0 -14 -1 -21h-395c6 -118 79 -185 171 -185c71 0 132 31 166 117l56 -26c-49 -114 -137 -151 -225 -151c-80 0 -147 40 -187 107c-23 -66 -98 -107 -198 -107c-116 0 -212 52 -212 153s99 153 202 153c76 0 131 -22 162 -60v68
c0 107 -73 144 -147 144s-129 -41 -145 -105l-56 18c21 92 102 146 201 146c79 0 158 -33 189 -112c40 71 109 112 193 112c129 0 226 -99 226 -251zM624 448c-89 0 -153 -59 -166 -157h323c-12 105 -75 157 -157 157zM244 46c83 0 148 34 148 98s-65 98 -148 98
s-151 -32 -151 -98s68 -98 151 -98z" />
    <glyph glyph-name="b" unicode="b" horiz-adv-x="575" 
d="M307 508c132 0 235 -102 235 -258s-103 -258 -235 -258c-87 0 -149 46 -184 114v-106h-65v700h65v-306c35 68 97 114 184 114zM299 52c104 0 178 75 178 198s-74 198 -178 198s-178 -75 -178 -198s74 -198 178 -198z" />
    <glyph glyph-name="c" unicode="c" horiz-adv-x="518" 
d="M270 -8c-134 0 -237 107 -237 258s103 258 237 258c95 0 184 -41 229 -169l-58 -24c-33 97 -92 133 -171 133c-93 0 -171 -72 -171 -198s78 -198 171 -198c79 0 138 36 171 133l58 -24c-45 -128 -134 -169 -229 -169z" />
    <glyph glyph-name="cacute" unicode="&#x107;" horiz-adv-x="518" 
d="M292 584h-65l86 134h74zM270 -8c-134 0 -237 107 -237 258s103 258 237 258c95 0 184 -41 229 -169l-58 -24c-33 97 -92 133 -171 133c-93 0 -171 -72 -171 -198s78 -198 171 -198c79 0 138 36 171 133l58 -24c-45 -128 -134 -169 -229 -169z" />
    <glyph glyph-name="ccaron" unicode="&#x10d;" horiz-adv-x="518" 
d="M434 718l-131 -134h-57l-131 134h81l79 -84l78 84h81zM270 52c79 0 138 36 171 133l58 -24c-45 -128 -134 -169 -229 -169c-134 0 -237 107 -237 258s103 258 237 258c95 0 184 -41 229 -169l-58 -24c-33 97 -92 133 -171 133c-93 0 -171 -72 -171 -198s78 -198 171 -198
z" />
    <glyph glyph-name="ccedilla" unicode="&#xe7;" horiz-adv-x="518" 
d="M270 52c79 0 138 36 171 133l58 -24c-40 -113 -114 -159 -197 -167l18 -17c26 -24 38 -51 38 -75c0 -39 -31 -70 -94 -70h-58v59h54c21 0 33 11 33 27c0 13 -7 28 -22 43l-32 33c-119 15 -206 117 -206 256c0 151 103 258 237 258c95 0 184 -41 229 -169l-58 -24
c-33 97 -92 133 -171 133c-93 0 -171 -72 -171 -198s78 -198 171 -198z" />
    <glyph glyph-name="ccircumflex" unicode="&#x109;" horiz-adv-x="518" 
d="M353 584l-79 84l-78 -84h-81l131 134h57l131 -134h-81zM270 52c79 0 138 36 171 133l58 -24c-45 -128 -134 -169 -229 -169c-134 0 -237 107 -237 258s103 258 237 258c95 0 184 -41 229 -169l-58 -24c-33 97 -92 133 -171 133c-93 0 -171 -72 -171 -198
s78 -198 171 -198z" />
    <glyph glyph-name="cdotaccent" unicode="&#x10b;" horiz-adv-x="518" 
d="M274 596c-28 0 -49 22 -49 51c0 28 21 50 49 50c29 0 51 -22 51 -50c0 -29 -22 -51 -51 -51zM270 -8c-134 0 -237 107 -237 258s103 258 237 258c95 0 184 -41 229 -169l-58 -24c-33 97 -92 133 -171 133c-93 0 -171 -72 -171 -198s78 -198 171 -198c79 0 138 36 171 133
l58 -24c-45 -128 -134 -169 -229 -169z" />
    <glyph glyph-name="d" unicode="d" horiz-adv-x="575" 
d="M452 394v306h65v-700h-65v106c-35 -68 -97 -114 -184 -114c-132 0 -235 102 -235 258s103 258 235 258c87 0 149 -46 184 -114zM276 52c104 0 178 75 178 198s-74 198 -178 198s-178 -75 -178 -198s74 -198 178 -198z" />
    <glyph glyph-name="eth" unicode="&#xf0;" horiz-adv-x="552" 
d="M373 559l101 -162c31 -50 46 -101 46 -158c0 -141 -102 -247 -243 -247s-244 106 -244 247c0 144 102 251 233 251c38 0 70 -10 94 -25l-61 94h-135v57h97l-55 84h79l52 -84h118v-57h-82zM277 52c102 0 178 80 178 189s-76 189 -178 189c-103 0 -179 -80 -179 -189
s76 -189 179 -189z" />
    <glyph glyph-name="dcaron" unicode="&#x10f;" horiz-adv-x="595" 
d="M452 394v306h65v-700h-65v106c-35 -68 -97 -114 -184 -114c-132 0 -235 102 -235 258s103 258 235 258c87 0 149 -46 184 -114zM582 512v188h59v-87l-20 -101h-39zM276 52c104 0 178 75 178 198s-74 198 -178 198s-178 -75 -178 -198s74 -198 178 -198z" />
    <glyph glyph-name="dcroat" unicode="&#x111;" horiz-adv-x="575" 
d="M517 615h74v-57h-74v-558h-65v106c-35 -68 -97 -114 -184 -114c-132 0 -235 102 -235 258s103 258 235 258c87 0 149 -46 184 -114v164h-128v57h128v85h65v-85zM276 52c104 0 178 75 178 198s-74 198 -178 198s-178 -75 -178 -198s74 -198 178 -198z" />
    <glyph glyph-name="uni1E0D" unicode="&#x1e0d;" horiz-adv-x="575" 
d="M452 394v306h65v-700h-65v106c-35 -68 -97 -114 -184 -114c-132 0 -235 102 -235 258s103 258 235 258c87 0 149 -46 184 -114zM276 52c104 0 178 75 178 198s-74 198 -178 198s-178 -75 -178 -198s74 -198 178 -198zM291 -55c29 0 51 -22 51 -50c0 -29 -22 -51 -51 -51
c-28 0 -49 22 -49 51c0 28 21 50 49 50z" />
    <glyph glyph-name="uni1E0F" unicode="&#x1e0f;" horiz-adv-x="575" 
d="M452 394v306h65v-700h-65v106c-35 -68 -97 -114 -184 -114c-132 0 -235 102 -235 258s103 258 235 258c87 0 149 -46 184 -114zM276 52c104 0 178 75 178 198s-74 198 -178 198s-178 -75 -178 -198s74 -198 178 -198zM439 -134h-295v59h295v-59z" />
    <glyph glyph-name="uni01F3" unicode="&#x1f3;" horiz-adv-x="1019" 
d="M452 394v306h65v-700h-65v106c-35 -68 -97 -114 -184 -114c-132 0 -235 102 -235 258s103 258 235 258c87 0 149 -46 184 -114zM989 452l-306 -393h313v-59h-401v47l310 394h-297v59h381v-48zM276 52c104 0 178 75 178 198s-74 198 -178 198s-178 -75 -178 -198
s74 -198 178 -198z" />
    <glyph glyph-name="uni01C6" unicode="&#x1c6;" horiz-adv-x="1019" 
d="M962 718l-131 -134h-57l-131 134h81l79 -84l78 84h81zM452 394v306h65v-700h-65v106c-35 -68 -97 -114 -184 -114c-132 0 -235 102 -235 258s103 258 235 258c87 0 149 -46 184 -114zM989 452l-306 -393h313v-59h-401v47l310 394h-297v59h381v-48zM276 52
c104 0 178 75 178 198s-74 198 -178 198s-178 -75 -178 -198s74 -198 178 -198z" />
    <glyph glyph-name="e" unicode="e" horiz-adv-x="528" 
d="M495 257c0 -8 0 -14 -1 -21h-395c6 -118 79 -185 171 -185c71 0 132 31 166 117l56 -26c-49 -114 -137 -151 -225 -151c-134 0 -234 105 -234 259c0 159 101 258 236 258c129 0 226 -99 226 -251zM268 448c-89 0 -153 -59 -166 -157h323c-12 105 -75 157 -157 157z" />
    <glyph glyph-name="eacute" unicode="&#xe9;" horiz-adv-x="528" 
d="M287 584h-65l86 134h74zM495 257c0 -8 0 -14 -1 -21h-395c6 -118 79 -185 171 -185c71 0 132 31 166 117l56 -26c-49 -114 -137 -151 -225 -151c-134 0 -234 105 -234 259c0 159 101 258 236 258c129 0 226 -99 226 -251zM268 448c-89 0 -153 -59 -166 -157h323
c-12 105 -75 157 -157 157z" />
    <glyph glyph-name="ebreve" unicode="&#x115;" horiz-adv-x="528" 
d="M269 580c-80 0 -145 52 -145 138h61c0 -54 35 -83 84 -83s84 29 84 83h61c0 -86 -65 -138 -145 -138zM495 257c0 -8 0 -14 -1 -21h-395c6 -118 79 -185 171 -185c71 0 132 31 166 117l56 -26c-49 -114 -137 -151 -225 -151c-134 0 -234 105 -234 259
c0 159 101 258 236 258c129 0 226 -99 226 -251zM268 448c-89 0 -153 -59 -166 -157h323c-12 105 -75 157 -157 157z" />
    <glyph glyph-name="ecaron" unicode="&#x11b;" horiz-adv-x="528" 
d="M429 718l-131 -134h-57l-131 134h81l79 -84l78 84h81zM495 257c0 -8 0 -14 -1 -21h-395c6 -118 79 -185 171 -185c71 0 132 31 166 117l56 -26c-49 -114 -137 -151 -225 -151c-134 0 -234 105 -234 259c0 159 101 258 236 258c129 0 226 -99 226 -251zM102 291h323
c-12 105 -75 157 -157 157c-89 0 -153 -59 -166 -157z" />
    <glyph glyph-name="ecircumflex" unicode="&#xea;" horiz-adv-x="528" 
d="M348 584l-79 84l-78 -84h-81l131 134h57l131 -134h-81zM495 257c0 -8 0 -14 -1 -21h-395c6 -118 79 -185 171 -185c71 0 132 31 166 117l56 -26c-49 -114 -137 -151 -225 -151c-134 0 -234 105 -234 259c0 159 101 258 236 258c129 0 226 -99 226 -251zM102 291h323
c-12 105 -75 157 -157 157c-89 0 -153 -59 -166 -157z" />
    <glyph glyph-name="uni1EBF" unicode="&#x1ebf;" horiz-adv-x="528" 
d="M422 762h74l-69 -93h-65zM348 571l-79 84l-78 -84h-81l131 134h57l131 -134h-81zM269 508c129 0 226 -99 226 -251c0 -8 0 -14 -1 -21h-395c6 -118 79 -185 171 -185c71 0 132 31 166 117l56 -26c-49 -114 -137 -151 -225 -151c-134 0 -234 105 -234 259
c0 159 101 258 236 258zM102 291h323c-12 105 -75 157 -157 157c-89 0 -153 -59 -166 -157z" />
    <glyph glyph-name="uni1EC7" unicode="&#x1ec7;" horiz-adv-x="528" 
d="M348 584l-79 84l-78 -84h-81l131 134h57l131 -134h-81zM495 257c0 -8 0 -14 -1 -21h-395c6 -118 79 -185 171 -185c71 0 132 31 166 117l56 -26c-49 -114 -137 -151 -225 -151c-134 0 -234 105 -234 259c0 159 101 258 236 258c129 0 226 -99 226 -251zM102 291h323
c-12 105 -75 157 -157 157c-89 0 -153 -59 -166 -157zM267 -55c29 0 51 -22 51 -50c0 -29 -22 -51 -51 -51c-28 0 -49 22 -49 51c0 28 21 50 49 50z" />
    <glyph glyph-name="uni1EC1" unicode="&#x1ec1;" horiz-adv-x="528" 
d="M387 762l60 -93h-65l-69 93h74zM348 571l-79 84l-78 -84h-81l131 134h57l131 -134h-81zM495 257c0 -8 0 -14 -1 -21h-395c6 -118 79 -185 171 -185c71 0 132 31 166 117l56 -26c-49 -114 -137 -151 -225 -151c-134 0 -234 105 -234 259c0 159 101 258 236 258
c129 0 226 -99 226 -251zM102 291h323c-12 105 -75 157 -157 157c-89 0 -153 -59 -166 -157z" />
    <glyph glyph-name="uni1EC3" unicode="&#x1ec3;" horiz-adv-x="528" 
d="M380 739c-16 0 -28 -11 -38 -27l-44 26c15 36 47 56 85 56c52 0 84 -32 84 -72c0 -24 -12 -43 -33 -64h-60c22 27 33 43 33 56c0 16 -10 25 -27 25zM347 571l-79 84l-78 -84h-81l131 134h57l131 -134h-81zM495 257c0 -8 0 -14 -1 -21h-395c6 -118 79 -185 171 -185
c71 0 132 31 166 117l56 -26c-49 -114 -137 -151 -225 -151c-134 0 -234 105 -234 259c0 159 101 258 236 258c129 0 226 -99 226 -251zM102 291h323c-12 105 -75 157 -157 157c-89 0 -153 -59 -166 -157z" />
    <glyph glyph-name="uni1EC5" unicode="&#x1ec5;" horiz-adv-x="528" 
d="M213 736c-16 0 -31 -9 -31 -42h-58c0 73 48 97 89 97c68 0 84 -47 117 -47c16 0 31 10 31 42h58c0 -73 -48 -96 -89 -96c-68 0 -84 46 -117 46zM342 569l-73 57l-72 -57h-87l133 104h53l133 -104h-87zM495 257c0 -8 0 -14 -1 -21h-395c6 -118 79 -185 171 -185
c71 0 132 31 166 117l56 -26c-49 -114 -137 -151 -225 -151c-134 0 -234 105 -234 259c0 159 101 258 236 258c129 0 226 -99 226 -251zM102 291h323c-12 105 -75 157 -157 157c-89 0 -153 -59 -166 -157z" />
    <glyph glyph-name="edieresis" unicode="&#xeb;" horiz-adv-x="528" 
d="M159 596c-26 0 -45 18 -45 45s19 45 45 45s45 -18 45 -45s-19 -45 -45 -45zM379 596c-26 0 -45 18 -45 45s19 45 45 45s45 -18 45 -45s-19 -45 -45 -45zM495 257c0 -8 0 -14 -1 -21h-395c6 -118 79 -185 171 -185c71 0 132 31 166 117l56 -26
c-49 -114 -137 -151 -225 -151c-134 0 -234 105 -234 259c0 159 101 258 236 258c129 0 226 -99 226 -251zM268 448c-89 0 -153 -59 -166 -157h323c-12 105 -75 157 -157 157z" />
    <glyph glyph-name="edotaccent" unicode="&#x117;" horiz-adv-x="528" 
d="M269 596c-28 0 -49 22 -49 51c0 28 21 50 49 50c29 0 51 -22 51 -50c0 -29 -22 -51 -51 -51zM495 257c0 -8 0 -14 -1 -21h-395c6 -118 79 -185 171 -185c71 0 132 31 166 117l56 -26c-49 -114 -137 -151 -225 -151c-134 0 -234 105 -234 259c0 159 101 258 236 258
c129 0 226 -99 226 -251zM268 448c-89 0 -153 -59 -166 -157h323c-12 105 -75 157 -157 157z" />
    <glyph glyph-name="uni1EB9" unicode="&#x1eb9;" horiz-adv-x="528" 
d="M495 257c0 -8 0 -14 -1 -21h-395c6 -118 79 -185 171 -185c71 0 132 31 166 117l56 -26c-49 -114 -137 -151 -225 -151c-134 0 -234 105 -234 259c0 159 101 258 236 258c129 0 226 -99 226 -251zM268 448c-89 0 -153 -59 -166 -157h323c-12 105 -75 157 -157 157z
M267 -156c-28 0 -49 22 -49 51c0 28 21 50 49 50c29 0 51 -22 51 -50c0 -29 -22 -51 -51 -51z" />
    <glyph glyph-name="egrave" unicode="&#xe8;" horiz-adv-x="528" 
d="M316 584h-65l-95 134h74zM495 257c0 -8 0 -14 -1 -21h-395c6 -118 79 -185 171 -185c71 0 132 31 166 117l56 -26c-49 -114 -137 -151 -225 -151c-134 0 -234 105 -234 259c0 159 101 258 236 258c129 0 226 -99 226 -251zM268 448c-89 0 -153 -59 -166 -157h323
c-12 105 -75 157 -157 157z" />
    <glyph glyph-name="uni1EBB" unicode="&#x1ebb;" horiz-adv-x="528" 
d="M317 565h-62c25 33 37 56 37 70c0 16 -10 25 -27 25s-30 -13 -40 -30l-44 26c15 37 48 59 87 59c52 0 84 -32 84 -72c0 -29 -17 -57 -35 -78zM495 257c0 -8 0 -14 -1 -21h-395c6 -118 79 -185 171 -185c71 0 132 31 166 117l56 -26c-49 -114 -137 -151 -225 -151
c-134 0 -234 105 -234 259c0 159 101 258 236 258c129 0 226 -99 226 -251zM268 448c-89 0 -153 -59 -166 -157h323c-12 105 -75 157 -157 157z" />
    <glyph glyph-name="emacron" unicode="&#x113;" horiz-adv-x="528" 
d="M417 612h-295v59h295v-59zM495 257c0 -8 0 -14 -1 -21h-395c6 -118 79 -185 171 -185c71 0 132 31 166 117l56 -26c-49 -114 -137 -151 -225 -151c-134 0 -234 105 -234 259c0 159 101 258 236 258c129 0 226 -99 226 -251zM268 448c-89 0 -153 -59 -166 -157h323
c-12 105 -75 157 -157 157z" />
    <glyph glyph-name="eogonek" unicode="&#x119;" horiz-adv-x="528" 
d="M495 257c0 -8 0 -14 -1 -21h-395c6 -118 79 -185 171 -185c71 0 132 31 166 117l56 -26c-20 -46 -46 -80 -76 -103l-49 -65c-22 -29 -29 -43 -29 -56c0 -16 12 -27 33 -27h39v-59h-43c-63 0 -94 31 -94 70c0 24 13 47 47 88l6 7c-19 -4 -39 -6 -59 -6
c-134 0 -234 105 -234 259c0 159 101 258 236 258c129 0 226 -99 226 -251zM102 291h323c-12 105 -75 157 -157 157c-89 0 -153 -59 -166 -157z" />
    <glyph glyph-name="uni1EBD" unicode="&#x1ebd;" horiz-adv-x="528" 
d="M330 589c-68 0 -84 64 -117 64c-16 0 -31 -11 -31 -58h-58c0 91 48 115 89 115c68 0 84 -64 117 -64c16 0 31 11 31 58h58c0 -91 -48 -115 -89 -115zM495 257c0 -8 0 -14 -1 -21h-395c6 -118 79 -185 171 -185c71 0 132 31 166 117l56 -26c-49 -114 -137 -151 -225 -151
c-134 0 -234 105 -234 259c0 159 101 258 236 258c129 0 226 -99 226 -251zM268 448c-89 0 -153 -59 -166 -157h323c-12 105 -75 157 -157 157z" />
    <glyph glyph-name="uni0259" unicode="&#x259;" horiz-adv-x="528" 
d="M33 243c0 8 0 14 1 21h395c-6 118 -79 185 -171 185c-71 0 -132 -31 -166 -117l-56 26c49 114 137 151 225 151c134 0 234 -105 234 -259c0 -159 -101 -258 -236 -258c-129 0 -226 99 -226 251zM260 52c89 0 153 59 166 157h-323c12 -105 75 -157 157 -157z" />
    <glyph glyph-name="f" unicode="f" horiz-adv-x="291" 
d="M229 704h54v-59h-49c-51 0 -71 -29 -71 -79v-66h120v-59h-120v-441h-65v441h-86v59h86v70c0 76 42 134 131 134z" />
    <glyph glyph-name="florin" unicode="&#x192;" horiz-adv-x="291" 
d="M283 645h-49c-51 0 -71 -29 -71 -79v-66h120v-59h-120v-479c0 -81 -52 -134 -130 -134c-46 0 -80 17 -105 47l37 44c17 -21 41 -33 68 -33c39 0 65 29 65 79v476h-86v59h86v70c0 76 42 134 131 134h54v-59z" />
    <glyph glyph-name="g" unicode="g" horiz-adv-x="565" 
d="M443 398v102h65v-438c0 -153 -106 -234 -243 -234c-101 0 -181 55 -219 138l48 32c35 -69 97 -111 170 -111c100 0 179 58 179 173v82c-33 -65 -94 -110 -179 -110c-130 0 -231 99 -231 238s101 238 231 238c85 0 146 -45 179 -110zM272 92c100 0 173 74 173 178
s-73 178 -173 178c-101 0 -174 -74 -174 -178s73 -178 174 -178z" />
    <glyph glyph-name="gbreve" unicode="&#x11f;" horiz-adv-x="565" 
d="M279 580c-80 0 -145 52 -145 138h61c0 -54 35 -83 84 -83s84 29 84 83h61c0 -86 -65 -138 -145 -138zM443 398v102h65v-438c0 -153 -106 -234 -243 -234c-101 0 -181 55 -219 138l48 32c35 -69 97 -111 170 -111c100 0 179 58 179 173v82c-33 -65 -94 -110 -179 -110
c-130 0 -231 99 -231 238s101 238 231 238c85 0 146 -45 179 -110zM272 92c100 0 173 74 173 178s-73 178 -173 178c-101 0 -174 -74 -174 -178s73 -178 174 -178z" />
    <glyph glyph-name="gcaron" unicode="&#x1e7;" horiz-adv-x="565" 
d="M439 718l-131 -134h-57l-131 134h81l79 -84l78 84h81zM443 398v102h65v-438c0 -153 -106 -234 -243 -234c-101 0 -181 55 -219 138l48 32c35 -69 97 -111 170 -111c100 0 179 58 179 173v82c-33 -65 -94 -110 -179 -110c-130 0 -231 99 -231 238s101 238 231 238
c85 0 146 -45 179 -110zM272 92c100 0 173 74 173 178s-73 178 -173 178c-101 0 -174 -74 -174 -178s73 -178 174 -178z" />
    <glyph glyph-name="gcircumflex" unicode="&#x11d;" horiz-adv-x="565" 
d="M358 584l-79 84l-78 -84h-81l131 134h57l131 -134h-81zM443 398v102h65v-438c0 -153 -106 -234 -243 -234c-101 0 -181 55 -219 138l48 32c35 -69 97 -111 170 -111c100 0 179 58 179 173v82c-33 -65 -94 -110 -179 -110c-130 0 -231 99 -231 238s101 238 231 238
c85 0 146 -45 179 -110zM272 92c100 0 173 74 173 178s-73 178 -173 178c-101 0 -174 -74 -174 -178s73 -178 174 -178z" />
    <glyph glyph-name="uni0123" unicode="&#x123;" horiz-adv-x="565" 
d="M279 576c-29 0 -51 20 -51 45c0 12 2 22 18 48l50 79l38 -23l-40 -63c21 -4 34 -22 34 -41c0 -25 -21 -45 -49 -45zM443 398v102h65v-438c0 -153 -106 -234 -243 -234c-101 0 -181 55 -219 138l48 32c35 -69 97 -111 170 -111c100 0 179 58 179 173v82
c-33 -65 -94 -110 -179 -110c-130 0 -231 99 -231 238s101 238 231 238c85 0 146 -45 179 -110zM272 92c100 0 173 74 173 178s-73 178 -173 178c-101 0 -174 -74 -174 -178s73 -178 174 -178z" />
    <glyph glyph-name="gdotaccent" unicode="&#x121;" horiz-adv-x="565" 
d="M279 596c-28 0 -49 22 -49 51c0 28 21 50 49 50c29 0 51 -22 51 -50c0 -29 -22 -51 -51 -51zM443 398v102h65v-438c0 -153 -106 -234 -243 -234c-101 0 -181 55 -219 138l48 32c35 -69 97 -111 170 -111c100 0 179 58 179 173v82c-33 -65 -94 -110 -179 -110
c-130 0 -231 99 -231 238s101 238 231 238c85 0 146 -45 179 -110zM272 92c100 0 173 74 173 178s-73 178 -173 178c-101 0 -174 -74 -174 -178s73 -178 174 -178z" />
    <glyph glyph-name="h" unicode="h" horiz-adv-x="528" 
d="M283 508c112 0 192 -78 192 -200v-308h-65v299c0 90 -55 149 -136 149c-89 0 -151 -59 -151 -149v-299h-65v700h65v-281c35 62 98 89 160 89z" />
    <glyph glyph-name="hbar" unicode="&#x127;" horiz-adv-x="528" 
d="M283 508c112 0 192 -78 192 -200v-308h-65v299c0 90 -55 149 -136 149c-89 0 -151 -59 -151 -149v-299h-65v558h-74v57h74v85h65v-85h128v-57h-128v-139c35 62 98 89 160 89z" />
    <glyph glyph-name="uni1E2B" unicode="&#x1e2b;" horiz-adv-x="528" 
d="M283 508c112 0 192 -78 192 -200v-308h-65v299c0 90 -55 149 -136 149c-89 0 -151 -59 -151 -149v-299h-65v700h65v-281c35 62 98 89 160 89zM267 -169c-80 0 -145 52 -145 138h61c0 -54 35 -83 84 -83s84 29 84 83h61c0 -86 -65 -138 -145 -138z" />
    <glyph glyph-name="uni1E29" unicode="&#x1e29;" horiz-adv-x="528" 
d="M283 508c112 0 192 -78 192 -200v-308h-65v299c0 90 -55 149 -136 149c-89 0 -151 -59 -151 -149v-299h-3l25 -23c26 -24 38 -51 38 -75c0 -39 -31 -70 -94 -70h-58v59h54c21 0 33 11 33 27c0 13 -7 28 -22 43l-38 39v700h65v-281c35 62 98 89 160 89z" />
    <glyph glyph-name="hcircumflex" unicode="&#x125;" horiz-adv-x="528" 
d="M346 784l-79 84l-78 -84h-81l131 134h57l131 -134h-81zM283 508c112 0 192 -78 192 -200v-308h-65v299c0 90 -55 149 -136 149c-89 0 -151 -59 -151 -149v-299h-65v700h65v-281c35 62 98 89 160 89z" />
    <glyph glyph-name="uni1E25" unicode="&#x1e25;" horiz-adv-x="528" 
d="M283 508c112 0 192 -78 192 -200v-308h-65v299c0 90 -55 149 -136 149c-89 0 -151 -59 -151 -149v-299h-65v700h65v-281c35 62 98 89 160 89zM267 -156c-28 0 -49 22 -49 51c0 28 21 50 49 50c29 0 51 -22 51 -50c0 -29 -22 -51 -51 -51z" />
    <glyph glyph-name="uni1E96" unicode="&#x1e96;" horiz-adv-x="528" 
d="M283 508c112 0 192 -78 192 -200v-308h-65v299c0 90 -55 149 -136 149c-89 0 -151 -59 -151 -149v-299h-65v700h65v-281c35 62 98 89 160 89zM415 -134h-295v59h295v-59z" />
    <glyph glyph-name="i" unicode="i" horiz-adv-x="181" 
d="M90 616c-28 0 -49 22 -49 51c0 28 21 50 49 50c29 0 51 -22 51 -50c0 -29 -22 -51 -51 -51zM58 0v500h65v-500h-65z" />
    <glyph glyph-name="dotlessi" unicode="&#x131;" horiz-adv-x="181" 
d="M58 500h65v-500h-65v500z" />
    <glyph glyph-name="iacute" unicode="&#xed;" horiz-adv-x="181" 
d="M108 584h-65l86 134h74zM123 0h-65v500h65v-500z" />
    <glyph glyph-name="ibreve" unicode="&#x12d;" horiz-adv-x="181" 
d="M90 580c-80 0 -145 52 -145 138h61c0 -54 35 -83 84 -83s84 29 84 83h61c0 -86 -65 -138 -145 -138zM123 500v-500h-65v500h65z" />
    <glyph glyph-name="uni01D0" unicode="&#x1d0;" horiz-adv-x="181" 
d="M250 718l-131 -134h-57l-131 134h81l79 -84l78 84h81zM123 0h-65v500h65v-500z" />
    <glyph glyph-name="icircumflex" unicode="&#xee;" horiz-adv-x="181" 
d="M62 718h57l131 -134h-81l-79 84l-78 -84h-81zM123 0h-65v500h65v-500z" />
    <glyph glyph-name="idieresis" unicode="&#xef;" horiz-adv-x="181" 
d="M5 596c-26 0 -45 18 -45 45s19 45 45 45s45 -18 45 -45s-19 -45 -45 -45zM175 596c-26 0 -45 18 -45 45s19 45 45 45s45 -18 45 -45s-19 -45 -45 -45zM123 0h-65v500h65v-500z" />
    <glyph glyph-name="uni1ECB" unicode="&#x1ecb;" horiz-adv-x="181" 
d="M90 616c-28 0 -49 22 -49 51c0 28 21 50 49 50c29 0 51 -22 51 -50c0 -29 -22 -51 -51 -51zM58 0v500h65v-500h-65zM91 -156c-28 0 -49 22 -49 51c0 28 21 50 49 50c29 0 51 -22 51 -50c0 -29 -22 -51 -51 -51z" />
    <glyph glyph-name="igrave" unicode="&#xec;" horiz-adv-x="181" 
d="M137 584h-65l-95 134h74zM58 500h65v-500h-65v500z" />
    <glyph glyph-name="uni1EC9" unicode="&#x1ec9;" horiz-adv-x="181" 
d="M138 565h-62c25 33 37 56 37 70c0 16 -10 25 -27 25s-30 -13 -40 -30l-44 26c15 37 48 59 87 59c52 0 84 -32 84 -72c0 -29 -17 -57 -35 -78zM58 0v500h65v-500h-65z" />
    <glyph glyph-name="imacron" unicode="&#x12b;" horiz-adv-x="181" 
d="M238 612h-295v59h295v-59zM123 500v-500h-65v500h65z" />
    <glyph glyph-name="iogonek" unicode="&#x12f;" horiz-adv-x="181" 
d="M90 616c-28 0 -49 22 -49 51c0 28 21 50 49 50c29 0 51 -22 51 -50c0 -29 -22 -51 -51 -51zM63 -82c0 -16 12 -27 33 -27h39v-59h-43c-63 0 -94 31 -94 70c0 24 12 51 38 75l25 23h-3v500h65v-500l-38 -39c-15 -15 -22 -30 -22 -43z" />
    <glyph glyph-name="itilde" unicode="&#x129;" horiz-adv-x="181" 
d="M151 589c-68 0 -84 64 -117 64c-16 0 -31 -11 -31 -58h-58c0 91 48 115 89 115c68 0 84 -64 117 -64c16 0 31 11 31 58h58c0 -91 -48 -115 -89 -115zM58 500h65v-500h-65v500z" />
    <glyph glyph-name="j" unicode="j" horiz-adv-x="181" 
d="M90 616c-28 0 -49 22 -49 51c0 28 21 50 49 50c29 0 51 -22 51 -50c0 -29 -22 -51 -51 -51zM58 -38v538h65v-541c0 -83 -41 -127 -110 -127h-23v61h17c33 0 51 22 51 69z" />
    <glyph glyph-name="uni0237" unicode="&#x237;" horiz-adv-x="181" 
d="M58 -38v538h65v-541c0 -83 -41 -127 -110 -127h-23v61h17c33 0 51 22 51 69z" />
    <glyph glyph-name="jcircumflex" unicode="&#x135;" horiz-adv-x="181" 
d="M62 718h57l131 -134h-81l-79 84l-78 -84h-81zM58 -38v538h65v-541c0 -83 -41 -127 -110 -127h-23v61h17c33 0 51 22 51 69z" />
    <glyph glyph-name="k" unicode="k" horiz-adv-x="437" 
d="M58 0v700h65v-428l229 228h81l-242 -234l255 -266h-81l-242 254v-254h-65z" />
    <glyph glyph-name="uni0137" unicode="&#x137;" horiz-adv-x="437" 
d="M433 500l-242 -234l255 -266h-81l-242 254v-254h-65v700h65v-428l229 228h81zM241 -47c29 0 51 -20 51 -45c0 -12 -2 -22 -18 -48l-38 -60l-38 23l28 44c-21 4 -34 22 -34 41c0 25 21 45 49 45z" />
    <glyph glyph-name="uni1E33" unicode="&#x1e33;" horiz-adv-x="437" 
d="M58 700h65v-428l229 228h81l-242 -234l255 -266h-81l-242 254v-254h-65v700zM242 -156c-28 0 -49 22 -49 51c0 28 21 50 49 50c29 0 51 -22 51 -50c0 -29 -22 -51 -51 -51z" />
    <glyph glyph-name="l" unicode="l" horiz-adv-x="237" 
d="M188 59h44v-59h-49c-84 0 -123 55 -123 127v573h65v-569c0 -46 18 -72 63 -72z" />
    <glyph glyph-name="lacute" unicode="&#x13a;" horiz-adv-x="237" 
d="M111 784h-65l86 134h74zM232 59v-59h-49c-84 0 -123 55 -123 127v573h65v-569c0 -46 18 -72 63 -72h44z" />
    <glyph glyph-name="lcaron" unicode="&#x13e;" horiz-adv-x="257" 
d="M188 59h44v-59h-49c-84 0 -123 55 -123 127v573h65v-569c0 -46 18 -72 63 -72zM190 512v188h59v-87l-20 -101h-39z" />
    <glyph glyph-name="uni013C" unicode="&#x13c;" horiz-adv-x="237" 
d="M188 59h44v-59h-49c-84 0 -123 55 -123 127v573h65v-569c0 -46 18 -72 63 -72zM152 -47c29 0 51 -20 51 -45c0 -12 -2 -22 -18 -48l-38 -60l-38 23l28 44c-21 4 -34 22 -34 41c0 25 21 45 49 45z" />
    <glyph glyph-name="ldot" unicode="&#x140;" horiz-adv-x="289" 
d="M188 59h44v-59h-49c-84 0 -123 55 -123 127v573h65v-569c0 -46 18 -72 63 -72zM236 311c-28 0 -49 22 -49 51c0 28 21 50 49 50c29 0 51 -22 51 -50c0 -29 -22 -51 -51 -51z" />
    <glyph glyph-name="uni1E37" unicode="&#x1e37;" horiz-adv-x="237" 
d="M188 59h44v-59h-49c-84 0 -123 55 -123 127v573h65v-569c0 -46 18 -72 63 -72zM153 -156c-28 0 -49 22 -49 51c0 28 21 50 49 50c29 0 51 -22 51 -50c0 -29 -22 -51 -51 -51z" />
    <glyph glyph-name="uni1E39" unicode="&#x1e39;" horiz-adv-x="237" 
d="M241 812h-295v59h295v-59zM188 59h44v-59h-49c-84 0 -123 55 -123 127v573h65v-569c0 -46 18 -72 63 -72zM153 -156c-28 0 -49 22 -49 51c0 28 21 50 49 50c29 0 51 -22 51 -50c0 -29 -22 -51 -51 -51z" />
    <glyph glyph-name="uni01C9" unicode="&#x1c9;" horiz-adv-x="418" 
d="M327 616c-28 0 -49 22 -49 51c0 28 21 50 49 50c29 0 51 -22 51 -50c0 -29 -22 -51 -51 -51zM188 59h44v-59h-49c-84 0 -123 55 -123 127v573h65v-569c0 -46 18 -72 63 -72zM295 -38v538h65v-541c0 -83 -41 -127 -110 -127h-23v61h17c33 0 51 22 51 69z" />
    <glyph glyph-name="uni1E3B" unicode="&#x1e3b;" horiz-adv-x="237" 
d="M188 59h44v-59h-49c-84 0 -123 55 -123 127v573h65v-569c0 -46 18 -72 63 -72zM301 -134h-295v59h295v-59z" />
    <glyph glyph-name="lslash" unicode="&#x142;" horiz-adv-x="309" 
d="M237 59h44v-59h-49c-84 0 -123 55 -123 127v211l-93 -28v59l93 28v303h65v-287l101 31v-59l-101 -31v-223c0 -46 18 -72 63 -72z" />
    <glyph glyph-name="m" unicode="m" horiz-adv-x="804" 
d="M574 507c104 0 177 -76 177 -192v-315h-65v305c0 90 -48 143 -119 143c-76 0 -130 -53 -130 -143v-305h-65v305c0 90 -48 143 -119 143c-76 0 -130 -53 -130 -143v-305h-65v500h65v-76c32 59 87 83 142 83c72 0 128 -38 155 -102c30 73 93 102 154 102z" />
    <glyph glyph-name="uni1E41" unicode="&#x1e41;" horiz-adv-x="804" 
d="M417 596c-28 0 -49 22 -49 51c0 28 21 50 49 50c29 0 51 -22 51 -50c0 -29 -22 -51 -51 -51zM574 507c104 0 177 -76 177 -192v-315h-65v305c0 90 -48 143 -119 143c-76 0 -130 -53 -130 -143v-305h-65v305c0 90 -48 143 -119 143c-76 0 -130 -53 -130 -143v-305h-65v500
h65v-76c32 59 87 83 142 83c72 0 128 -38 155 -102c30 73 93 102 154 102z" />
    <glyph glyph-name="uni1E43" unicode="&#x1e43;" horiz-adv-x="804" 
d="M574 507c104 0 177 -76 177 -192v-315h-65v305c0 90 -48 143 -119 143c-76 0 -130 -53 -130 -143v-305h-65v305c0 90 -48 143 -119 143c-76 0 -130 -53 -130 -143v-305h-65v500h65v-76c32 59 87 83 142 83c72 0 128 -38 155 -102c30 73 93 102 154 102zM405 -156
c-28 0 -49 22 -49 51c0 28 21 50 49 50c29 0 51 -22 51 -50c0 -29 -22 -51 -51 -51z" />
    <glyph glyph-name="n" unicode="n" horiz-adv-x="528" 
d="M283 508c112 0 192 -78 192 -200v-308h-65v299c0 90 -55 149 -136 149c-89 0 -151 -59 -151 -149v-299h-65v500h65v-81c35 62 98 89 160 89z" />
    <glyph glyph-name="nacute" unicode="&#x144;" horiz-adv-x="528" 
d="M289 584h-65l86 134h74zM283 508c112 0 192 -78 192 -200v-308h-65v299c0 90 -55 149 -136 149c-89 0 -151 -59 -151 -149v-299h-65v500h65v-81c35 62 98 89 160 89z" />
    <glyph glyph-name="ncaron" unicode="&#x148;" horiz-adv-x="528" 
d="M431 718l-131 -134h-57l-131 134h81l79 -84l78 84h81zM283 508c112 0 192 -78 192 -200v-308h-65v299c0 90 -55 149 -136 149c-89 0 -151 -59 -151 -149v-299h-65v500h65v-81c35 62 98 89 160 89z" />
    <glyph glyph-name="uni0146" unicode="&#x146;" horiz-adv-x="528" 
d="M283 508c112 0 192 -78 192 -200v-308h-65v299c0 90 -55 149 -136 149c-89 0 -151 -59 -151 -149v-299h-65v500h65v-81c35 62 98 89 160 89zM266 -47c29 0 51 -20 51 -45c0 -12 -2 -22 -18 -48l-38 -60l-38 23l28 44c-21 4 -34 22 -34 41c0 25 21 45 49 45z" />
    <glyph glyph-name="uni1E45" unicode="&#x1e45;" horiz-adv-x="528" 
d="M271 596c-28 0 -49 22 -49 51c0 28 21 50 49 50c29 0 51 -22 51 -50c0 -29 -22 -51 -51 -51zM283 508c112 0 192 -78 192 -200v-308h-65v299c0 90 -55 149 -136 149c-89 0 -151 -59 -151 -149v-299h-65v500h65v-81c35 62 98 89 160 89z" />
    <glyph glyph-name="uni1E47" unicode="&#x1e47;" horiz-adv-x="528" 
d="M283 508c112 0 192 -78 192 -200v-308h-65v299c0 90 -55 149 -136 149c-89 0 -151 -59 -151 -149v-299h-65v500h65v-81c35 62 98 89 160 89zM267 -156c-28 0 -49 22 -49 51c0 28 21 50 49 50c29 0 51 -22 51 -50c0 -29 -22 -51 -51 -51z" />
    <glyph glyph-name="eng" unicode="&#x14b;" horiz-adv-x="528" 
d="M283 508c112 0 192 -78 192 -200v-349c0 -83 -41 -127 -110 -127h-23v61h17c33 0 51 22 51 69v337c0 90 -55 149 -136 149c-89 0 -151 -59 -151 -149v-299h-65v500h65v-81c35 62 98 89 160 89z" />
    <glyph glyph-name="uni01CC" unicode="&#x1cc;" horiz-adv-x="709" 
d="M618 616c-28 0 -49 22 -49 51c0 28 21 50 49 50c29 0 51 -22 51 -50c0 -29 -22 -51 -51 -51zM283 508c112 0 192 -78 192 -200v-308h-65v299c0 90 -55 149 -136 149c-89 0 -151 -59 -151 -149v-299h-65v500h65v-81c35 62 98 89 160 89zM586 -38v538h65v-541
c0 -83 -41 -127 -110 -127h-23v61h17c33 0 51 22 51 69z" />
    <glyph glyph-name="uni1E49" unicode="&#x1e49;" horiz-adv-x="528" 
d="M283 508c112 0 192 -78 192 -200v-308h-65v299c0 90 -55 149 -136 149c-89 0 -151 -59 -151 -149v-299h-65v500h65v-81c35 62 98 89 160 89zM415 -134h-295v59h295v-59z" />
    <glyph glyph-name="ntilde" unicode="&#xf1;" horiz-adv-x="528" 
d="M332 589c-68 0 -84 64 -117 64c-16 0 -31 -11 -31 -58h-58c0 91 48 115 89 115c68 0 84 -64 117 -64c16 0 31 11 31 58h58c0 -91 -48 -115 -89 -115zM283 508c112 0 192 -78 192 -200v-308h-65v299c0 90 -55 149 -136 149c-89 0 -151 -59 -151 -149v-299h-65v500h65v-81
c35 62 98 89 160 89z" />
    <glyph glyph-name="o" unicode="o" horiz-adv-x="562" 
d="M281 -9c-142 0 -248 105 -248 259c0 153 106 258 248 258s248 -105 248 -258c0 -154 -106 -259 -248 -259zM281 51c105 0 182 76 182 199c0 122 -77 198 -182 198s-182 -76 -182 -198c0 -123 77 -199 182 -199z" />
    <glyph glyph-name="oacute" unicode="&#xf3;" horiz-adv-x="562" 
d="M299 584h-65l86 134h74zM281 -9c-142 0 -248 105 -248 259c0 153 106 258 248 258s248 -105 248 -258c0 -154 -106 -259 -248 -259zM281 51c105 0 182 76 182 199c0 122 -77 198 -182 198s-182 -76 -182 -198c0 -123 77 -199 182 -199z" />
    <glyph glyph-name="obreve" unicode="&#x14f;" horiz-adv-x="562" 
d="M281 580c-80 0 -145 52 -145 138h61c0 -54 35 -83 84 -83s84 29 84 83h61c0 -86 -65 -138 -145 -138zM281 -9c-142 0 -248 105 -248 259c0 153 106 258 248 258s248 -105 248 -258c0 -154 -106 -259 -248 -259zM281 51c105 0 182 76 182 199c0 122 -77 198 -182 198
s-182 -76 -182 -198c0 -123 77 -199 182 -199z" />
    <glyph glyph-name="uni01D2" unicode="&#x1d2;" horiz-adv-x="562" 
d="M441 718l-131 -134h-57l-131 134h81l79 -84l78 84h81zM281 508c142 0 248 -105 248 -258c0 -154 -106 -259 -248 -259s-248 105 -248 259c0 153 106 258 248 258zM281 51c105 0 182 76 182 199c0 122 -77 198 -182 198s-182 -76 -182 -198c0 -123 77 -199 182 -199z" />
    <glyph glyph-name="ocircumflex" unicode="&#xf4;" horiz-adv-x="562" 
d="M360 584l-79 84l-78 -84h-81l131 134h57l131 -134h-81zM281 508c142 0 248 -105 248 -258c0 -154 -106 -259 -248 -259s-248 105 -248 259c0 153 106 258 248 258zM281 51c105 0 182 76 182 199c0 122 -77 198 -182 198s-182 -76 -182 -198c0 -123 77 -199 182 -199z" />
    <glyph glyph-name="uni1ED1" unicode="&#x1ed1;" horiz-adv-x="562" 
d="M434 762h74l-69 -93h-65zM360 571l-79 84l-78 -84h-81l131 134h57l131 -134h-81zM281 508c142 0 248 -105 248 -258c0 -154 -106 -259 -248 -259s-248 105 -248 259c0 153 106 258 248 258zM281 51c105 0 182 76 182 199c0 122 -77 198 -182 198s-182 -76 -182 -198
c0 -123 77 -199 182 -199z" />
    <glyph glyph-name="uni1ED9" unicode="&#x1ed9;" horiz-adv-x="562" 
d="M360 584l-79 84l-78 -84h-81l131 134h57l131 -134h-81zM281 508c142 0 248 -105 248 -258c0 -154 -106 -259 -248 -259s-248 105 -248 259c0 153 106 258 248 258zM281 51c105 0 182 76 182 199c0 122 -77 198 -182 198s-182 -76 -182 -198c0 -123 77 -199 182 -199z
M281 -55c29 0 51 -22 51 -50c0 -29 -22 -51 -51 -51c-28 0 -49 22 -49 51c0 28 21 50 49 50z" />
    <glyph glyph-name="uni1ED3" unicode="&#x1ed3;" horiz-adv-x="562" 
d="M399 762l60 -93h-65l-69 93h74zM360 571l-79 84l-78 -84h-81l131 134h57l131 -134h-81zM281 508c142 0 248 -105 248 -258c0 -154 -106 -259 -248 -259s-248 105 -248 259c0 153 106 258 248 258zM281 51c105 0 182 76 182 199c0 122 -77 198 -182 198
s-182 -76 -182 -198c0 -123 77 -199 182 -199z" />
    <glyph glyph-name="uni1ED5" unicode="&#x1ed5;" horiz-adv-x="562" 
d="M392 739c-16 0 -28 -11 -38 -27l-44 26c15 36 47 56 85 56c52 0 84 -32 84 -72c0 -24 -12 -43 -33 -64h-60c22 27 33 43 33 56c0 16 -10 25 -27 25zM359 571l-79 84l-78 -84h-81l131 134h57l131 -134h-81zM281 508c142 0 248 -105 248 -258c0 -154 -106 -259 -248 -259
s-248 105 -248 259c0 153 106 258 248 258zM281 51c105 0 182 76 182 199c0 122 -77 198 -182 198s-182 -76 -182 -198c0 -123 77 -199 182 -199z" />
    <glyph glyph-name="uni1ED7" unicode="&#x1ed7;" horiz-adv-x="562" 
d="M225 736c-16 0 -31 -9 -31 -42h-58c0 73 48 97 89 97c68 0 84 -47 117 -47c16 0 31 10 31 42h58c0 -73 -48 -96 -89 -96c-68 0 -84 46 -117 46zM354 569l-73 57l-72 -57h-87l133 104h53l133 -104h-87zM281 508c142 0 248 -105 248 -258c0 -154 -106 -259 -248 -259
s-248 105 -248 259c0 153 106 258 248 258zM281 51c105 0 182 76 182 199c0 122 -77 198 -182 198s-182 -76 -182 -198c0 -123 77 -199 182 -199z" />
    <glyph glyph-name="odieresis" unicode="&#xf6;" horiz-adv-x="562" 
d="M171 596c-26 0 -45 18 -45 45s19 45 45 45s45 -18 45 -45s-19 -45 -45 -45zM391 596c-26 0 -45 18 -45 45s19 45 45 45s45 -18 45 -45s-19 -45 -45 -45zM281 -9c-142 0 -248 105 -248 259c0 153 106 258 248 258s248 -105 248 -258c0 -154 -106 -259 -248 -259zM281 51
c105 0 182 76 182 199c0 122 -77 198 -182 198s-182 -76 -182 -198c0 -123 77 -199 182 -199z" />
    <glyph glyph-name="uni1ECD" unicode="&#x1ecd;" horiz-adv-x="562" 
d="M281 -9c-142 0 -248 105 -248 259c0 153 106 258 248 258s248 -105 248 -258c0 -154 -106 -259 -248 -259zM281 51c105 0 182 76 182 199c0 122 -77 198 -182 198s-182 -76 -182 -198c0 -123 77 -199 182 -199zM281 -156c-28 0 -49 22 -49 51c0 28 21 50 49 50
c29 0 51 -22 51 -50c0 -29 -22 -51 -51 -51z" />
    <glyph glyph-name="ograve" unicode="&#xf2;" horiz-adv-x="562" 
d="M328 584h-65l-95 134h74zM281 -9c-142 0 -248 105 -248 259c0 153 106 258 248 258s248 -105 248 -258c0 -154 -106 -259 -248 -259zM281 51c105 0 182 76 182 199c0 122 -77 198 -182 198s-182 -76 -182 -198c0 -123 77 -199 182 -199z" />
    <glyph glyph-name="uni1ECF" unicode="&#x1ecf;" horiz-adv-x="562" 
d="M329 565h-62c25 33 37 56 37 70c0 16 -10 25 -27 25s-30 -13 -40 -30l-44 26c15 37 48 59 87 59c52 0 84 -32 84 -72c0 -29 -17 -57 -35 -78zM281 -9c-142 0 -248 105 -248 259c0 153 106 258 248 258s248 -105 248 -258c0 -154 -106 -259 -248 -259zM281 51
c105 0 182 76 182 199c0 122 -77 198 -182 198s-182 -76 -182 -198c0 -123 77 -199 182 -199z" />
    <glyph glyph-name="ohorn" unicode="&#x1a1;" horiz-adv-x="606" 
d="M532 564v32h65v-37c0 -80 -51 -116 -117 -116h-40c55 -44 89 -112 89 -193c0 -154 -106 -259 -248 -259s-248 105 -248 259c0 153 106 258 248 258c23 0 45 -3 65 -8h127c37 0 59 18 59 64zM463 250c0 122 -77 198 -182 198s-182 -76 -182 -198c0 -123 77 -199 182 -199
s182 76 182 199z" />
    <glyph glyph-name="uni1EDB" unicode="&#x1edb;" horiz-adv-x="606" 
d="M295 584h-65l86 134h74zM532 564v32h65v-37c0 -80 -51 -116 -117 -116h-40c55 -44 89 -112 89 -193c0 -154 -106 -259 -248 -259s-248 105 -248 259c0 153 106 258 248 258c23 0 45 -3 65 -8h127c37 0 59 18 59 64zM463 250c0 122 -77 198 -182 198s-182 -76 -182 -198
c0 -123 77 -199 182 -199s182 76 182 199z" />
    <glyph glyph-name="uni1EE3" unicode="&#x1ee3;" horiz-adv-x="606" 
d="M532 564v32h65v-37c0 -80 -51 -116 -117 -116h-40c55 -44 89 -112 89 -193c0 -154 -106 -259 -248 -259s-248 105 -248 259c0 153 106 258 248 258c23 0 45 -3 65 -8h127c37 0 59 18 59 64zM463 250c0 122 -77 198 -182 198s-182 -76 -182 -198c0 -123 77 -199 182 -199
s182 76 182 199zM277 -156c-28 0 -49 22 -49 51c0 28 21 50 49 50c29 0 51 -22 51 -50c0 -29 -22 -51 -51 -51z" />
    <glyph glyph-name="uni1EDD" unicode="&#x1edd;" horiz-adv-x="606" 
d="M324 584h-65l-95 134h74zM532 564v32h65v-37c0 -80 -51 -116 -117 -116h-40c55 -44 89 -112 89 -193c0 -154 -106 -259 -248 -259s-248 105 -248 259c0 153 106 258 248 258c23 0 45 -3 65 -8h127c37 0 59 18 59 64zM463 250c0 122 -77 198 -182 198s-182 -76 -182 -198
c0 -123 77 -199 182 -199s182 76 182 199z" />
    <glyph glyph-name="uni1EDF" unicode="&#x1edf;" horiz-adv-x="606" 
d="M325 565h-62c25 33 37 56 37 70c0 16 -10 25 -27 25s-30 -13 -40 -30l-44 26c15 37 48 59 87 59c52 0 84 -32 84 -72c0 -29 -17 -57 -35 -78zM532 564v32h65v-37c0 -80 -51 -116 -117 -116h-40c55 -44 89 -112 89 -193c0 -154 -106 -259 -248 -259s-248 105 -248 259
c0 153 106 258 248 258c23 0 45 -3 65 -8h127c37 0 59 18 59 64zM463 250c0 122 -77 198 -182 198s-182 -76 -182 -198c0 -123 77 -199 182 -199s182 76 182 199z" />
    <glyph glyph-name="uni1EE1" unicode="&#x1ee1;" horiz-adv-x="606" 
d="M338 589c-68 0 -84 64 -117 64c-16 0 -31 -11 -31 -58h-58c0 91 48 115 89 115c68 0 84 -64 117 -64c16 0 31 11 31 58h58c0 -91 -48 -115 -89 -115zM532 564v32h65v-37c0 -80 -51 -116 -117 -116h-40c55 -44 89 -112 89 -193c0 -154 -106 -259 -248 -259
s-248 105 -248 259c0 153 106 258 248 258c23 0 45 -3 65 -8h127c37 0 59 18 59 64zM463 250c0 122 -77 198 -182 198s-182 -76 -182 -198c0 -123 77 -199 182 -199s182 76 182 199z" />
    <glyph glyph-name="ohungarumlaut" unicode="&#x151;" horiz-adv-x="562" 
d="M308 718l-95 -134h-65l86 134h74zM495 718l-95 -134h-65l86 134h74zM281 -9c-142 0 -248 105 -248 259c0 153 106 258 248 258s248 -105 248 -258c0 -154 -106 -259 -248 -259zM281 51c105 0 182 76 182 199c0 122 -77 198 -182 198s-182 -76 -182 -198
c0 -123 77 -199 182 -199z" />
    <glyph glyph-name="omacron" unicode="&#x14d;" horiz-adv-x="562" 
d="M429 612h-295v59h295v-59zM281 -9c-142 0 -248 105 -248 259c0 153 106 258 248 258s248 -105 248 -258c0 -154 -106 -259 -248 -259zM281 51c105 0 182 76 182 199c0 122 -77 198 -182 198s-182 -76 -182 -198c0 -123 77 -199 182 -199z" />
    <glyph glyph-name="oslash" unicode="&#xf8;" horiz-adv-x="562" 
d="M438 455l53 55l38 -39l-53 -55c34 -44 53 -101 53 -166c0 -154 -106 -259 -248 -259c-60 0 -114 19 -156 53l-53 -55l-39 39l53 55c-33 44 -53 101 -53 167c0 153 106 258 248 258c61 0 115 -19 157 -53zM281 448c-105 0 -182 -76 -182 -198c0 -48 12 -88 32 -120
l264 280c-31 25 -70 38 -114 38zM281 51c105 0 182 76 182 199c0 47 -11 87 -31 119l-264 -280c30 -25 69 -38 113 -38z" />
    <glyph glyph-name="otilde" unicode="&#xf5;" horiz-adv-x="562" 
d="M342 589c-68 0 -84 64 -117 64c-16 0 -31 -11 -31 -58h-58c0 91 48 115 89 115c68 0 84 -64 117 -64c16 0 31 11 31 58h58c0 -91 -48 -115 -89 -115zM281 -9c-142 0 -248 105 -248 259c0 153 106 258 248 258s248 -105 248 -258c0 -154 -106 -259 -248 -259zM281 51
c105 0 182 76 182 199c0 122 -77 198 -182 198s-182 -76 -182 -198c0 -123 77 -199 182 -199z" />
    <glyph glyph-name="oe" unicode="&#x153;" horiz-adv-x="958" 
d="M925 257c0 -8 0 -14 -1 -21h-395c6 -118 79 -185 171 -185c70 0 130 31 164 117l56 -26c-49 -114 -136 -151 -223 -151c-92 0 -164 49 -201 129c-40 -80 -118 -129 -215 -129c-142 0 -248 105 -248 259c0 153 106 258 248 258c97 0 174 -49 214 -128
c37 81 111 128 204 128c129 0 226 -99 226 -251zM281 51c105 0 182 76 182 199c0 122 -77 198 -182 198s-182 -76 -182 -198c0 -123 77 -199 182 -199zM698 448c-89 0 -153 -59 -166 -157h323c-12 105 -75 157 -157 157z" />
    <glyph glyph-name="p" unicode="p" horiz-adv-x="575" 
d="M307 508c132 0 235 -102 235 -258s-103 -258 -235 -258c-87 0 -149 46 -184 114v-269h-65v663h65v-106c35 68 97 114 184 114zM299 52c104 0 178 75 178 198s-74 198 -178 198s-178 -75 -178 -198s74 -198 178 -198z" />
    <glyph glyph-name="thorn" unicode="&#xfe;" horiz-adv-x="575" 
d="M307 508c132 0 235 -102 235 -258s-103 -258 -235 -258c-87 0 -149 46 -184 114v-269h-65v863h65v-306c35 68 97 114 184 114zM299 52c104 0 178 75 178 198s-74 198 -178 198s-178 -75 -178 -198s74 -198 178 -198z" />
    <glyph glyph-name="q" unicode="q" horiz-adv-x="575" 
d="M452 394v106h65v-663h-65v269c-35 -68 -97 -114 -184 -114c-132 0 -235 102 -235 258s103 258 235 258c87 0 149 -46 184 -114zM276 52c104 0 178 75 178 198s-74 198 -178 198s-178 -75 -178 -198s74 -198 178 -198z" />
    <glyph glyph-name="r" unicode="r" horiz-adv-x="310" 
d="M269 508h31v-68h-44c-79 0 -133 -69 -133 -168v-272h-65v500h64v-93c29 65 81 101 147 101z" />
    <glyph glyph-name="racute" unicode="&#x155;" horiz-adv-x="310" 
d="M198 584h-65l86 134h74zM269 508h31v-68h-44c-79 0 -133 -69 -133 -168v-272h-65v500h64v-93c29 65 81 101 147 101z" />
    <glyph glyph-name="rcaron" unicode="&#x159;" horiz-adv-x="310" 
d="M340 718l-131 -134h-57l-131 134h81l79 -84l78 84h81zM122 500v-93c29 65 81 101 147 101h31v-68h-44c-79 0 -133 -69 -133 -168v-272h-65v500h64z" />
    <glyph glyph-name="uni0157" unicode="&#x157;" horiz-adv-x="310" 
d="M269 508h31v-68h-44c-79 0 -133 -69 -133 -168v-272h-65v500h64v-93c29 65 81 101 147 101zM91 -47c29 0 51 -20 51 -45c0 -12 -2 -22 -18 -48l-38 -60l-38 23l28 44c-21 4 -34 22 -34 41c0 25 21 45 49 45z" />
    <glyph glyph-name="uni1E59" unicode="&#x1e59;" horiz-adv-x="310" 
d="M180 596c-28 0 -49 22 -49 51c0 28 21 50 49 50c29 0 51 -22 51 -50c0 -29 -22 -51 -51 -51zM269 508h31v-68h-44c-79 0 -133 -69 -133 -168v-272h-65v500h64v-93c29 65 81 101 147 101z" />
    <glyph glyph-name="uni1E5B" unicode="&#x1e5b;" horiz-adv-x="310" 
d="M269 508h31v-68h-44c-79 0 -133 -69 -133 -168v-272h-65v500h64v-93c29 65 81 101 147 101zM92 -156c-28 0 -49 22 -49 51c0 28 21 50 49 50c29 0 51 -22 51 -50c0 -29 -22 -51 -51 -51z" />
    <glyph glyph-name="uni1E5D" unicode="&#x1e5d;" horiz-adv-x="310" 
d="M328 612h-295v59h295v-59zM269 508h31v-68h-44c-79 0 -133 -69 -133 -168v-272h-65v500h64v-93c29 65 81 101 147 101zM92 -156c-28 0 -49 22 -49 51c0 28 21 50 49 50c29 0 51 -22 51 -50c0 -29 -22 -51 -51 -51z" />
    <glyph glyph-name="uni1E5F" unicode="&#x1e5f;" horiz-adv-x="310" 
d="M269 508h31v-68h-44c-79 0 -133 -69 -133 -168v-272h-65v500h64v-93c29 65 81 101 147 101zM240 -134h-295v59h295v-59z" />
    <glyph glyph-name="s" unicode="s" horiz-adv-x="458" 
d="M233 -9c-99 0 -182 45 -211 157l59 16c19 -81 84 -113 151 -113c79 0 129 34 129 80c0 45 -40 66 -121 86l-51 13c-105 27 -147 77 -147 144c0 77 72 134 177 134c96 0 186 -49 202 -159l-59 -12c-16 82 -75 110 -143 110c-63 0 -109 -29 -109 -73c0 -50 56 -72 116 -87
l51 -13c104 -27 151 -69 151 -142c0 -80 -77 -141 -195 -141z" />
    <glyph glyph-name="sacute" unicode="&#x15b;" horiz-adv-x="458" 
d="M245 584h-65l86 134h74zM233 -9c-99 0 -182 45 -211 157l59 16c19 -81 84 -113 151 -113c79 0 129 34 129 80c0 45 -40 66 -121 86l-51 13c-105 27 -147 77 -147 144c0 77 72 134 177 134c96 0 186 -49 202 -159l-59 -12c-16 82 -75 110 -143 110
c-63 0 -109 -29 -109 -73c0 -50 56 -72 116 -87l51 -13c104 -27 151 -69 151 -142c0 -80 -77 -141 -195 -141z" />
    <glyph glyph-name="scaron" unicode="&#x161;" horiz-adv-x="458" 
d="M387 718l-131 -134h-57l-131 134h81l79 -84l78 84h81zM226 287l51 -13c104 -27 151 -69 151 -142c0 -80 -77 -141 -195 -141c-99 0 -182 45 -211 157l59 16c19 -81 84 -113 151 -113c79 0 129 34 129 80c0 45 -40 66 -121 86l-51 13c-105 27 -147 77 -147 144
c0 77 72 134 177 134c96 0 186 -49 202 -159l-59 -12c-16 82 -75 110 -143 110c-63 0 -109 -29 -109 -73c0 -50 56 -72 116 -87z" />
    <glyph glyph-name="scedilla" unicode="&#x15f;" horiz-adv-x="458" 
d="M428 132c0 -75 -68 -133 -174 -140l16 -15c26 -24 38 -51 38 -75c0 -39 -31 -70 -94 -70h-58v59h54c21 0 33 11 33 27c0 13 -7 28 -22 43l-32 33c-79 12 -142 59 -167 154l59 16c19 -81 84 -113 151 -113c79 0 129 34 129 80c0 45 -40 66 -121 86l-51 13
c-105 27 -147 77 -147 144c0 77 72 134 177 134c96 0 186 -49 202 -159l-59 -12c-16 82 -75 110 -143 110c-63 0 -109 -29 -109 -73c0 -50 56 -72 116 -87l51 -13c104 -27 151 -69 151 -142z" />
    <glyph glyph-name="scircumflex" unicode="&#x15d;" horiz-adv-x="458" 
d="M306 584l-79 84l-78 -84h-81l131 134h57l131 -134h-81zM226 287l51 -13c104 -27 151 -69 151 -142c0 -80 -77 -141 -195 -141c-99 0 -182 45 -211 157l59 16c19 -81 84 -113 151 -113c79 0 129 34 129 80c0 45 -40 66 -121 86l-51 13c-105 27 -147 77 -147 144
c0 77 72 134 177 134c96 0 186 -49 202 -159l-59 -12c-16 82 -75 110 -143 110c-63 0 -109 -29 -109 -73c0 -50 56 -72 116 -87z" />
    <glyph glyph-name="uni0219" unicode="&#x219;" horiz-adv-x="458" 
d="M226 287l51 -13c104 -27 151 -69 151 -142c0 -80 -77 -141 -195 -141c-99 0 -182 45 -211 157l59 16c19 -81 84 -113 151 -113c79 0 129 34 129 80c0 45 -40 66 -121 86l-51 13c-105 27 -147 77 -147 144c0 77 72 134 177 134c96 0 186 -49 202 -159l-59 -12
c-16 82 -75 110 -143 110c-63 0 -109 -29 -109 -73c0 -50 56 -72 116 -87zM216 -47c29 0 51 -20 51 -45c0 -12 -2 -22 -18 -48l-38 -60l-38 23l28 44c-21 4 -34 22 -34 41c0 25 21 45 49 45z" />
    <glyph glyph-name="uni1E63" unicode="&#x1e63;" horiz-adv-x="458" 
d="M233 -9c-99 0 -182 45 -211 157l59 16c19 -81 84 -113 151 -113c79 0 129 34 129 80c0 45 -40 66 -121 86l-51 13c-105 27 -147 77 -147 144c0 77 72 134 177 134c96 0 186 -49 202 -159l-59 -12c-16 82 -75 110 -143 110c-63 0 -109 -29 -109 -73c0 -50 56 -72 116 -87
l51 -13c104 -27 151 -69 151 -142c0 -80 -77 -141 -195 -141zM217 -156c-28 0 -49 22 -49 51c0 28 21 50 49 50c29 0 51 -22 51 -50c0 -29 -22 -51 -51 -51z" />
    <glyph glyph-name="germandbls" unicode="&#xdf;" horiz-adv-x="559" 
d="M377 369c85 -13 151 -84 151 -170c0 -125 -101 -199 -224 -199h-79v59h69c97 0 167 50 167 140s-68 139 -167 139h-22v58h1c80 0 151 35 151 126c0 82 -67 127 -151 127c-91 0 -150 -56 -150 -148v-501h-65v504c0 117 75 205 216 205c121 0 216 -75 216 -186
c0 -81 -48 -139 -113 -154z" />
    <glyph glyph-name="longs" unicode="&#x17f;" horiz-adv-x="201" 
d="M123 564v-564h-65v571c0 76 42 134 131 134h54v-62h-49c-51 0 -71 -29 -71 -79z" />
    <glyph glyph-name="t" unicode="t" horiz-adv-x="304" 
d="M105 134v307h-95v59h95v116l65 48v-164h120v-59h-120v-300c0 -52 20 -82 70 -82h50v-59h-55c-89 0 -130 58 -130 134z" />
    <glyph glyph-name="tbar" unicode="&#x167;" horiz-adv-x="309" 
d="M294 500v-59h-120v-145h120v-57h-120v-98c0 -52 20 -82 70 -82h50v-59h-55c-89 0 -130 58 -130 134v105h-95v57h95v145h-95v59h95v116l65 48v-164h120z" />
    <glyph glyph-name="tcaron" unicode="&#x165;" horiz-adv-x="304" 
d="M221 542v188h59v-87l-20 -101h-39zM170 500h120v-59h-120v-300c0 -52 20 -82 70 -82h50v-59h-55c-89 0 -130 58 -130 134v307h-95v59h95v116l65 48v-164z" />
    <glyph glyph-name="uni0163" unicode="&#x163;" horiz-adv-x="304" 
d="M290 500v-59h-120v-300c0 -52 20 -82 70 -82h50v-59h-55c-7 0 -13 0 -20 1l6 -8c29 -40 47 -67 47 -91c0 -39 -31 -70 -94 -70h-58v59h54c21 0 33 11 33 27c0 13 -6 25 -24 55l-38 61c-24 24 -36 59 -36 100v307h-95v59h95v116l65 48v-164h120z" />
    <glyph glyph-name="uni021B" unicode="&#x21b;" horiz-adv-x="304" 
d="M290 500v-59h-120v-300c0 -52 20 -82 70 -82h50v-59h-55c-89 0 -130 58 -130 134v307h-95v59h95v116l65 48v-164h120zM201 -47c29 0 51 -20 51 -45c0 -12 -2 -22 -18 -48l-38 -60l-38 23l28 44c-21 4 -34 22 -34 41c0 25 21 45 49 45z" />
    <glyph glyph-name="uni1E6D" unicode="&#x1e6d;" horiz-adv-x="304" 
d="M105 441h-95v59h95v116l65 48v-164h120v-59h-120v-300c0 -52 20 -82 70 -82h50v-59h-55c-89 0 -130 58 -130 134v307zM202 -156c-28 0 -49 22 -49 51c0 28 21 50 49 50c29 0 51 -22 51 -50c0 -29 -22 -51 -51 -51z" />
    <glyph glyph-name="uni1E6F" unicode="&#x1e6f;" horiz-adv-x="304" 
d="M105 134v307h-95v59h95v116l65 48v-164h120v-59h-120v-300c0 -52 20 -82 70 -82h50v-59h-55c-89 0 -130 58 -130 134zM350 -134h-295v59h295v-59z" />
    <glyph glyph-name="u" unicode="u" horiz-adv-x="523" 
d="M262 -8c-121 0 -209 74 -209 211v297h65v-291c0 -103 60 -156 144 -156c85 0 143 53 143 156v291h65v-297c0 -137 -87 -211 -208 -211z" />
    <glyph glyph-name="uacute" unicode="&#xfa;" horiz-adv-x="523" 
d="M280 584h-65l86 134h74zM262 -8c-121 0 -209 74 -209 211v297h65v-291c0 -103 60 -156 144 -156c85 0 143 53 143 156v291h65v-297c0 -137 -87 -211 -208 -211z" />
    <glyph glyph-name="ubreve" unicode="&#x16d;" horiz-adv-x="523" 
d="M262 580c-80 0 -145 52 -145 138h61c0 -54 35 -83 84 -83s84 29 84 83h61c0 -86 -65 -138 -145 -138zM262 -8c-121 0 -209 74 -209 211v297h65v-291c0 -103 60 -156 144 -156c85 0 143 53 143 156v291h65v-297c0 -137 -87 -211 -208 -211z" />
    <glyph glyph-name="uni01D4" unicode="&#x1d4;" horiz-adv-x="523" 
d="M422 718l-131 -134h-57l-131 134h81l79 -84l78 84h81zM405 209v291h65v-297c0 -137 -87 -211 -208 -211s-209 74 -209 211v297h65v-291c0 -103 60 -156 144 -156c85 0 143 53 143 156z" />
    <glyph glyph-name="ucircumflex" unicode="&#xfb;" horiz-adv-x="523" 
d="M341 584l-79 84l-78 -84h-81l131 134h57l131 -134h-81zM405 209v291h65v-297c0 -137 -87 -211 -208 -211s-209 74 -209 211v297h65v-291c0 -103 60 -156 144 -156c85 0 143 53 143 156z" />
    <glyph glyph-name="udieresis" unicode="&#xfc;" horiz-adv-x="523" 
d="M152 596c-26 0 -45 18 -45 45s19 45 45 45s45 -18 45 -45s-19 -45 -45 -45zM372 596c-26 0 -45 18 -45 45s19 45 45 45s45 -18 45 -45s-19 -45 -45 -45zM262 -8c-121 0 -209 74 -209 211v297h65v-291c0 -103 60 -156 144 -156c85 0 143 53 143 156v291h65v-297
c0 -137 -87 -211 -208 -211z" />
    <glyph glyph-name="uni01D8" unicode="&#x1d8;" horiz-adv-x="523" 
d="M284 693h-65l60 93h74zM152 556c-26 0 -45 18 -45 45s19 45 45 45s45 -18 45 -45s-19 -45 -45 -45zM372 556c-26 0 -45 18 -45 45s19 45 45 45s45 -18 45 -45s-19 -45 -45 -45zM262 -8c-121 0 -209 74 -209 211v297h65v-291c0 -103 60 -156 144 -156c85 0 143 53 143 156
v291h65v-297c0 -137 -87 -211 -208 -211z" />
    <glyph glyph-name="uni01DA" unicode="&#x1da;" horiz-adv-x="523" 
d="M422 797l-131 -104h-57l-131 104h84l76 -57l75 57h84zM107 601c0 27 19 45 45 45s45 -18 45 -45s-19 -45 -45 -45s-45 18 -45 45zM327 601c0 27 19 45 45 45s45 -18 45 -45s-19 -45 -45 -45s-45 18 -45 45zM405 209v291h65v-297c0 -137 -87 -211 -208 -211
s-209 74 -209 211v297h65v-291c0 -103 60 -156 144 -156c85 0 143 53 143 156z" />
    <glyph glyph-name="uni01DC" unicode="&#x1dc;" horiz-adv-x="523" 
d="M315 693h-65l-69 93h74zM152 556c-26 0 -45 18 -45 45s19 45 45 45s45 -18 45 -45s-19 -45 -45 -45zM372 556c-26 0 -45 18 -45 45s19 45 45 45s45 -18 45 -45s-19 -45 -45 -45zM262 -8c-121 0 -209 74 -209 211v297h65v-291c0 -103 60 -156 144 -156
c85 0 143 53 143 156v291h65v-297c0 -137 -87 -211 -208 -211z" />
    <glyph glyph-name="uni01D6" unicode="&#x1d6;" horiz-adv-x="523" 
d="M410 756h-295v59h295v-59zM152 556c-26 0 -45 18 -45 45s19 45 45 45s45 -18 45 -45s-19 -45 -45 -45zM372 556c-26 0 -45 18 -45 45s19 45 45 45s45 -18 45 -45s-19 -45 -45 -45zM262 -8c-121 0 -209 74 -209 211v297h65v-291c0 -103 60 -156 144 -156
c85 0 143 53 143 156v291h65v-297c0 -137 -87 -211 -208 -211z" />
    <glyph glyph-name="uni1EE5" unicode="&#x1ee5;" horiz-adv-x="523" 
d="M262 -8c-121 0 -209 74 -209 211v297h65v-291c0 -103 60 -156 144 -156c85 0 143 53 143 156v291h65v-297c0 -137 -87 -211 -208 -211zM261 -156c-28 0 -49 22 -49 51c0 28 21 50 49 50c29 0 51 -22 51 -50c0 -29 -22 -51 -51 -51z" />
    <glyph glyph-name="ugrave" unicode="&#xf9;" horiz-adv-x="523" 
d="M309 584h-65l-95 134h74zM262 -8c-121 0 -209 74 -209 211v297h65v-291c0 -103 60 -156 144 -156c85 0 143 53 143 156v291h65v-297c0 -137 -87 -211 -208 -211z" />
    <glyph glyph-name="uni1EE7" unicode="&#x1ee7;" horiz-adv-x="523" 
d="M310 565h-62c25 33 37 56 37 70c0 16 -10 25 -27 25s-30 -13 -40 -30l-44 26c15 37 48 59 87 59c52 0 84 -32 84 -72c0 -29 -17 -57 -35 -78zM262 -8c-121 0 -209 74 -209 211v297h65v-291c0 -103 60 -156 144 -156c85 0 143 53 143 156v291h65v-297
c0 -137 -87 -211 -208 -211z" />
    <glyph glyph-name="uhorn" unicode="&#x1b0;" horiz-adv-x="605" 
d="M542 564v32h65v-37c0 -80 -51 -116 -117 -116h-20v-240c0 -137 -87 -211 -208 -211s-209 74 -209 211v297h65v-291c0 -103 60 -156 144 -156c85 0 143 53 143 156v291h78c37 0 59 18 59 64z" />
    <glyph glyph-name="uni1EE9" unicode="&#x1ee9;" horiz-adv-x="605" 
d="M301 718h74l-95 -134h-65zM542 564v32h65v-37c0 -80 -51 -116 -117 -116h-20v-240c0 -137 -87 -211 -208 -211s-209 74 -209 211v297h65v-291c0 -103 60 -156 144 -156c85 0 143 53 143 156v291h78c37 0 59 18 59 64z" />
    <glyph glyph-name="uni1EF1" unicode="&#x1ef1;" horiz-adv-x="605" 
d="M542 564v32h65v-37c0 -80 -51 -116 -117 -116h-20v-240c0 -137 -87 -211 -208 -211s-209 74 -209 211v297h65v-291c0 -103 60 -156 144 -156c85 0 143 53 143 156v291h78c37 0 59 18 59 64zM261 -55c29 0 51 -22 51 -50c0 -29 -22 -51 -51 -51c-28 0 -49 22 -49 51
c0 28 21 50 49 50z" />
    <glyph glyph-name="uni1EEB" unicode="&#x1eeb;" horiz-adv-x="605" 
d="M223 718l86 -134h-65l-95 134h74zM542 564v32h65v-37c0 -80 -51 -116 -117 -116h-20v-240c0 -137 -87 -211 -208 -211s-209 74 -209 211v297h65v-291c0 -103 60 -156 144 -156c85 0 143 53 143 156v291h78c37 0 59 18 59 64z" />
    <glyph glyph-name="uni1EED" unicode="&#x1eed;" horiz-adv-x="605" 
d="M258 660c-17 0 -30 -13 -40 -30l-44 26c15 37 48 59 87 59c52 0 84 -32 84 -72c0 -29 -17 -57 -35 -78h-62c25 33 37 56 37 70c0 16 -10 25 -27 25zM542 564v32h65v-37c0 -80 -51 -116 -117 -116h-20v-240c0 -137 -87 -211 -208 -211s-209 74 -209 211v297h65v-291
c0 -103 60 -156 144 -156c85 0 143 53 143 156v291h78c37 0 59 18 59 64z" />
    <glyph glyph-name="uni1EEF" unicode="&#x1eef;" horiz-adv-x="605" 
d="M206 653c-16 0 -31 -11 -31 -58h-58c0 91 48 115 89 115c68 0 84 -64 117 -64c16 0 31 11 31 58h58c0 -91 -48 -115 -89 -115c-68 0 -84 64 -117 64zM542 564v32h65v-37c0 -80 -51 -116 -117 -116h-20v-240c0 -137 -87 -211 -208 -211s-209 74 -209 211v297h65v-291
c0 -103 60 -156 144 -156c85 0 143 53 143 156v291h78c37 0 59 18 59 64z" />
    <glyph glyph-name="uhungarumlaut" unicode="&#x171;" horiz-adv-x="523" 
d="M289 718l-95 -134h-65l86 134h74zM476 718l-95 -134h-65l86 134h74zM262 -8c-121 0 -209 74 -209 211v297h65v-291c0 -103 60 -156 144 -156c85 0 143 53 143 156v291h65v-297c0 -137 -87 -211 -208 -211z" />
    <glyph glyph-name="umacron" unicode="&#x16b;" horiz-adv-x="523" 
d="M410 612h-295v59h295v-59zM262 -8c-121 0 -209 74 -209 211v297h65v-291c0 -103 60 -156 144 -156c85 0 143 53 143 156v291h65v-297c0 -137 -87 -211 -208 -211z" />
    <glyph glyph-name="uogonek" unicode="&#x173;" horiz-adv-x="523" 
d="M405 209v291h65v-297c0 -111 -57 -181 -143 -203l-38 -39c-15 -15 -22 -30 -22 -43c0 -16 12 -27 33 -27h39v-59h-43c-63 0 -94 31 -94 70c0 24 12 51 38 75l16 15c-118 2 -203 76 -203 211v297h65v-291c0 -103 60 -156 144 -156c85 0 143 53 143 156z" />
    <glyph glyph-name="uring" unicode="&#x16f;" horiz-adv-x="523" 
d="M263 555c-62 0 -112 39 -112 98s50 99 112 99s111 -40 111 -99s-49 -98 -111 -98zM263 605c33 0 56 19 56 48s-23 48 -56 48s-56 -19 -56 -48s23 -48 56 -48zM262 -8c-121 0 -209 74 -209 211v297h65v-291c0 -103 60 -156 144 -156c85 0 143 53 143 156v291h65v-297
c0 -137 -87 -211 -208 -211z" />
    <glyph glyph-name="utilde" unicode="&#x169;" horiz-adv-x="523" 
d="M323 589c-68 0 -84 64 -117 64c-16 0 -31 -11 -31 -58h-58c0 91 48 115 89 115c68 0 84 -64 117 -64c16 0 31 11 31 58h58c0 -91 -48 -115 -89 -115zM262 -8c-121 0 -209 74 -209 211v297h65v-291c0 -103 60 -156 144 -156c85 0 143 53 143 156v291h65v-297
c0 -137 -87 -211 -208 -211z" />
    <glyph glyph-name="v" unicode="v" horiz-adv-x="489" 
d="M11 500h70l164 -410l164 410h69l-205 -501h-57z" />
    <glyph glyph-name="w" unicode="w" horiz-adv-x="737" 
d="M236 0h-56l-165 500h68l128 -403l132 403h52l133 -403l128 403h66l-164 -500h-57l-132 403z" />
    <glyph glyph-name="wacute" unicode="&#x1e83;" horiz-adv-x="737" 
d="M387 584h-65l86 134h74zM395 500l133 -403l128 403h66l-164 -500h-57l-132 403l-133 -403h-56l-165 500h68l128 -403l132 403h52z" />
    <glyph glyph-name="wcircumflex" unicode="&#x175;" horiz-adv-x="737" 
d="M448 584l-79 84l-78 -84h-81l131 134h57l131 -134h-81zM528 97l128 403h66l-164 -500h-57l-132 403l-133 -403h-56l-165 500h68l128 -403l132 403h52z" />
    <glyph glyph-name="wdieresis" unicode="&#x1e85;" horiz-adv-x="737" 
d="M259 596c-26 0 -45 18 -45 45s19 45 45 45s45 -18 45 -45s-19 -45 -45 -45zM479 596c-26 0 -45 18 -45 45s19 45 45 45s45 -18 45 -45s-19 -45 -45 -45zM211 97l132 403h52l133 -403l128 403h66l-164 -500h-57l-132 403l-133 -403h-56l-165 500h68z" />
    <glyph glyph-name="uni1E89" unicode="&#x1e89;" horiz-adv-x="737" 
d="M15 500h68l128 -403l132 403h52l133 -403l128 403h66l-164 -500h-57l-132 403l-133 -403h-56zM369 -156c-28 0 -49 22 -49 51c0 28 21 50 49 50c29 0 51 -22 51 -50c0 -29 -22 -51 -51 -51z" />
    <glyph glyph-name="wgrave" unicode="&#x1e81;" horiz-adv-x="737" 
d="M416 584h-65l-95 134h74zM180 0l-165 500h68l128 -403l132 403h52l133 -403l128 403h66l-164 -500h-57l-132 403l-133 -403h-56z" />
    <glyph glyph-name="x" unicode="x" horiz-adv-x="471" 
d="M388 500h76l-190 -243l200 -257h-79l-160 207l-162 -207h-76l200 255l-190 245h79l150 -194z" />
    <glyph glyph-name="y" unicode="y" horiz-adv-x="495" 
d="M164 -163h-72l132 265l-208 398h74l169 -329l165 329h72z" />
    <glyph glyph-name="yacute" unicode="&#xfd;" horiz-adv-x="495" 
d="M275 584h-65l86 134h74zM90 500l169 -329l165 329h72l-332 -663h-72l132 265l-208 398h74z" />
    <glyph glyph-name="ycircumflex" unicode="&#x177;" horiz-adv-x="495" 
d="M336 584l-79 84l-78 -84h-81l131 134h57l131 -134h-81zM259 171l165 329h72l-332 -663h-72l132 265l-208 398h74z" />
    <glyph glyph-name="ydieresis" unicode="&#xff;" horiz-adv-x="495" 
d="M147 596c-26 0 -45 18 -45 45s19 45 45 45s45 -18 45 -45s-19 -45 -45 -45zM367 596c-26 0 -45 18 -45 45s19 45 45 45s45 -18 45 -45s-19 -45 -45 -45zM224 102l-208 398h74l169 -329l165 329h72l-332 -663h-72z" />
    <glyph glyph-name="uni1EF5" unicode="&#x1ef5;" horiz-adv-x="495" 
d="M164 -163h-72l132 265l-208 398h74l169 -329l165 329h72zM344 -175c-28 0 -49 22 -49 51c0 28 21 50 49 50c29 0 51 -22 51 -50c0 -29 -22 -51 -51 -51z" />
    <glyph glyph-name="ygrave" unicode="&#x1ef3;" horiz-adv-x="495" 
d="M304 584h-65l-95 134h74zM496 500l-332 -663h-72l132 265l-208 398h74l169 -329l165 329h72z" />
    <glyph glyph-name="uni1EF7" unicode="&#x1ef7;" horiz-adv-x="495" 
d="M305 565h-62c25 33 37 56 37 70c0 16 -10 25 -27 25s-30 -13 -40 -30l-44 26c15 37 48 59 87 59c52 0 84 -32 84 -72c0 -29 -17 -57 -35 -78zM424 500h72l-332 -663h-72l132 265l-208 398h74l169 -329z" />
    <glyph glyph-name="uni0233" unicode="&#x233;" horiz-adv-x="495" 
d="M405 612h-295v59h295v-59zM259 171l165 329h72l-332 -663h-72l132 265l-208 398h74z" />
    <glyph glyph-name="uni1EF9" unicode="&#x1ef9;" horiz-adv-x="495" 
d="M318 589c-68 0 -84 64 -117 64c-16 0 -31 -11 -31 -58h-58c0 91 48 115 89 115c68 0 84 -64 117 -64c16 0 31 11 31 58h58c0 -91 -48 -115 -89 -115zM16 500h74l169 -329l165 329h72l-332 -663h-72l132 265z" />
    <glyph glyph-name="z" unicode="z" horiz-adv-x="444" 
d="M108 59h313v-59h-401v47l310 394h-297v59h381v-48z" />
    <glyph glyph-name="zacute" unicode="&#x17a;" horiz-adv-x="444" 
d="M245 584h-65l86 134h74zM330 441h-297v59h381v-48l-306 -393h313v-59h-401v47z" />
    <glyph glyph-name="zcaron" unicode="&#x17e;" horiz-adv-x="444" 
d="M387 718l-131 -134h-57l-131 134h81l79 -84l78 84h81zM414 452l-306 -393h313v-59h-401v47l310 394h-297v59h381v-48z" />
    <glyph glyph-name="zdotaccent" unicode="&#x17c;" horiz-adv-x="444" 
d="M227 596c-28 0 -49 22 -49 51c0 28 21 50 49 50c29 0 51 -22 51 -50c0 -29 -22 -51 -51 -51zM421 0h-401v47l310 394h-297v59h381v-48l-306 -393h313v-59z" />
    <glyph glyph-name="uni1E93" unicode="&#x1e93;" horiz-adv-x="444" 
d="M421 59v-59h-401v47l310 394h-297v59h381v-48l-306 -393h313zM224 -156c-28 0 -49 22 -49 51c0 28 21 50 49 50c29 0 51 -22 51 -50c0 -29 -22 -51 -51 -51z" />
    <glyph glyph-name="uni1E95" unicode="&#x1e95;" horiz-adv-x="444" 
d="M108 59h313v-59h-401v47l310 394h-297v59h381v-48zM372 -134h-295v59h295v-59z" />
    <glyph glyph-name="uni013C.latnMAH" horiz-adv-x="237" 
d="M185 0l21 -23c25 -26 38 -51 38 -75c0 -39 -31 -70 -94 -70h-58v59h54c21 0 33 11 33 27c0 13 -8 27 -22 43l-59 68c-26 23 -38 58 -38 98v573h65v-569c0 -46 18 -72 63 -72h44v-59h-47z" />
    <glyph glyph-name="uni0146.latnMAH" horiz-adv-x="528" 
d="M283 508c112 0 192 -78 192 -200v-308h-65v299c0 90 -55 149 -136 149c-89 0 -151 -59 -151 -149v-299h-65v500h65v-81c35 62 98 89 160 89zM264 -168h-58v59h54c21 0 33 11 33 27c0 13 -7 28 -22 43l-38 39l46 15l41 -38c26 -24 38 -51 38 -75c0 -39 -31 -70 -94 -70z
" />
    <glyph glyph-name="aogonek.latnNAV" horiz-adv-x="508" 
d="M243 508c106 0 212 -55 212 -196v-312h-65v51c-21 -26 -53 -44 -94 -53l-36 -37c-15 -15 -22 -30 -22 -43c0 -16 12 -27 33 -27h39v-59h-43c-63 0 -94 31 -94 70c0 24 12 51 38 75l15 14c-103 1 -200 53 -200 153c0 101 99 153 202 153c76 0 131 -22 162 -60v68
c0 107 -73 144 -147 144s-129 -41 -145 -105l-56 18c21 92 102 146 201 146zM244 46c83 0 148 34 148 98s-65 98 -148 98s-151 -32 -151 -98s68 -98 151 -98z" />
    <glyph glyph-name="eogonek.latnNAV" horiz-adv-x="528" 
d="M495 257c0 -8 0 -14 -1 -21h-395c6 -118 79 -185 171 -185c71 0 132 31 166 117l56 -26c-41 -96 -111 -138 -184 -148l-15 -20c-22 -29 -29 -43 -29 -56c0 -16 12 -27 33 -27h39v-59h-43c-63 0 -94 31 -94 70c0 24 13 47 47 88l1 2c-124 9 -214 112 -214 258
c0 159 101 258 236 258c129 0 226 -99 226 -251zM102 291h323c-12 105 -75 157 -157 157c-89 0 -153 -59 -166 -157z" />
    <glyph glyph-name="j.latnNLD" horiz-adv-x="181" 
d="M108 584h-65l86 134h74zM58 -38v538h65v-541c0 -83 -41 -127 -110 -127h-23v61h17c33 0 51 22 51 69z" />
    <glyph glyph-name="g.ss01" horiz-adv-x="526" 
d="M271 -172c-175 0 -249 60 -249 134c0 43 31 82 87 99c-48 14 -76 41 -76 78c0 51 40 83 110 93c-49 26 -79 70 -79 123c0 87 87 153 205 153c84 0 157 -5 221 26l21 -56c-41 -17 -74 -24 -107 -25c43 -22 69 -60 69 -104c0 -88 -86 -151 -211 -151
c-102 0 -163 -8 -163 -52c0 -39 61 -46 151 -46h26c176 0 241 -62 241 -138c0 -74 -74 -134 -246 -134zM269 254c78 0 139 34 139 98s-61 98 -139 98s-139 -33 -139 -98s61 -98 139 -98zM271 -114c133 0 180 29 180 77c0 49 -47 77 -180 77s-183 -31 -183 -77
s50 -77 183 -77z" />
    <glyph glyph-name="gbreve.ss01" horiz-adv-x="526" 
d="M269 580c-80 0 -145 52 -145 138h61c0 -54 35 -83 84 -83s84 29 84 83h61c0 -86 -65 -138 -145 -138zM271 -172c-175 0 -249 60 -249 134c0 43 31 82 87 99c-48 14 -76 41 -76 78c0 51 40 83 110 93c-49 26 -79 70 -79 123c0 87 87 153 205 153c84 0 157 -5 221 26
l21 -56c-41 -17 -74 -24 -107 -25c43 -22 69 -60 69 -104c0 -88 -86 -151 -211 -151c-102 0 -163 -8 -163 -52c0 -39 61 -46 151 -46h26c176 0 241 -62 241 -138c0 -74 -74 -134 -246 -134zM269 254c78 0 139 34 139 98s-61 98 -139 98s-139 -33 -139 -98s61 -98 139 -98z
M271 -114c133 0 180 29 180 77c0 49 -47 77 -180 77s-183 -31 -183 -77s50 -77 183 -77z" />
    <glyph glyph-name="gcaron.ss01" horiz-adv-x="526" 
d="M429 718l-131 -134h-57l-131 134h81l79 -84l78 84h81zM250 100h26c176 0 241 -62 241 -138c0 -74 -74 -134 -246 -134c-175 0 -249 60 -249 134c0 43 31 82 87 99c-48 14 -76 41 -76 78c0 51 40 83 110 93c-49 26 -79 70 -79 123c0 87 87 153 205 153c84 0 157 -5 221 26
l21 -56c-41 -17 -74 -24 -107 -25c43 -22 69 -60 69 -104c0 -88 -86 -151 -211 -151c-102 0 -163 -8 -163 -52c0 -39 61 -46 151 -46zM130 352c0 -65 61 -98 139 -98s139 34 139 98s-61 98 -139 98s-139 -33 -139 -98zM271 -114c133 0 180 29 180 77c0 49 -47 77 -180 77
s-183 -31 -183 -77s50 -77 183 -77z" />
    <glyph glyph-name="gcircumflex.ss01" horiz-adv-x="526" 
d="M348 584l-79 84l-78 -84h-81l131 134h57l131 -134h-81zM250 100h26c176 0 241 -62 241 -138c0 -74 -74 -134 -246 -134c-175 0 -249 60 -249 134c0 43 31 82 87 99c-48 14 -76 41 -76 78c0 51 40 83 110 93c-49 26 -79 70 -79 123c0 87 87 153 205 153
c84 0 157 -5 221 26l21 -56c-41 -17 -74 -24 -107 -25c43 -22 69 -60 69 -104c0 -88 -86 -151 -211 -151c-102 0 -163 -8 -163 -52c0 -39 61 -46 151 -46zM130 352c0 -65 61 -98 139 -98s139 34 139 98s-61 98 -139 98s-139 -33 -139 -98zM271 -114c133 0 180 29 180 77
c0 49 -47 77 -180 77s-183 -31 -183 -77s50 -77 183 -77z" />
    <glyph glyph-name="uni0123.ss01" horiz-adv-x="526" 
d="M269 576c-29 0 -51 20 -51 45c0 12 2 22 18 48l50 79l38 -23l-40 -63c21 -4 34 -22 34 -41c0 -25 -21 -45 -49 -45zM250 100h26c176 0 241 -62 241 -138c0 -74 -74 -134 -246 -134c-175 0 -249 60 -249 134c0 43 31 82 87 99c-48 14 -76 41 -76 78c0 51 40 83 110 93
c-49 26 -79 70 -79 123c0 87 87 153 205 153c84 0 157 -5 221 26l21 -56c-41 -17 -74 -24 -107 -25c43 -22 69 -60 69 -104c0 -88 -86 -151 -211 -151c-102 0 -163 -8 -163 -52c0 -39 61 -46 151 -46zM130 352c0 -65 61 -98 139 -98s139 34 139 98s-61 98 -139 98
s-139 -33 -139 -98zM271 -114c133 0 180 29 180 77c0 49 -47 77 -180 77s-183 -31 -183 -77s50 -77 183 -77z" />
    <glyph glyph-name="gdotaccent.ss01" horiz-adv-x="526" 
d="M269 596c-28 0 -49 22 -49 51c0 28 21 50 49 50c29 0 51 -22 51 -50c0 -29 -22 -51 -51 -51zM271 -172c-175 0 -249 60 -249 134c0 43 31 82 87 99c-48 14 -76 41 -76 78c0 51 40 83 110 93c-49 26 -79 70 -79 123c0 87 87 153 205 153c84 0 157 -5 221 26l21 -56
c-41 -17 -74 -24 -107 -25c43 -22 69 -60 69 -104c0 -88 -86 -151 -211 -151c-102 0 -163 -8 -163 -52c0 -39 61 -46 151 -46h26c176 0 241 -62 241 -138c0 -74 -74 -134 -246 -134zM269 254c78 0 139 34 139 98s-61 98 -139 98s-139 -33 -139 -98s61 -98 139 -98zM271 -114
c133 0 180 29 180 77c0 49 -47 77 -180 77s-183 -31 -183 -77s50 -77 183 -77z" />
    <glyph glyph-name="a.ss02" horiz-adv-x="575" 
d="M452 394v106h65v-500h-65v106c-35 -68 -97 -114 -184 -114c-132 0 -235 102 -235 258s103 258 235 258c87 0 149 -46 184 -114zM276 52c104 0 178 75 178 198s-74 198 -178 198s-178 -75 -178 -198s74 -198 178 -198z" />
    <glyph glyph-name="aacute.ss02" horiz-adv-x="575" 
d="M304 584h-65l86 134h74zM452 394v106h65v-500h-65v106c-35 -68 -97 -114 -184 -114c-132 0 -235 102 -235 258s103 258 235 258c87 0 149 -46 184 -114zM276 52c104 0 178 75 178 198s-74 198 -178 198s-178 -75 -178 -198s74 -198 178 -198z" />
    <glyph glyph-name="abreve.ss02" horiz-adv-x="575" 
d="M286 580c-80 0 -145 52 -145 138h61c0 -54 35 -83 84 -83s84 29 84 83h61c0 -86 -65 -138 -145 -138zM452 394v106h65v-500h-65v106c-35 -68 -97 -114 -184 -114c-132 0 -235 102 -235 258s103 258 235 258c87 0 149 -46 184 -114zM276 52c104 0 178 75 178 198
s-74 198 -178 198s-178 -75 -178 -198s74 -198 178 -198z" />
    <glyph glyph-name="uni1EAF.ss02" horiz-adv-x="575" 
d="M305 693h-65l60 93h74zM286 570c-67 0 -124 37 -140 100h63c13 -31 41 -47 77 -47s64 16 77 47h63c-16 -63 -73 -100 -140 -100zM452 394v106h65v-500h-65v106c-35 -68 -97 -114 -184 -114c-132 0 -235 102 -235 258s103 258 235 258c87 0 149 -46 184 -114zM276 52
c104 0 178 75 178 198s-74 198 -178 198s-178 -75 -178 -198s74 -198 178 -198z" />
    <glyph glyph-name="uni1EB7.ss02" horiz-adv-x="575" 
d="M286 580c-80 0 -145 52 -145 138h61c0 -54 35 -83 84 -83s84 29 84 83h61c0 -86 -65 -138 -145 -138zM452 394v106h65v-500h-65v106c-35 -68 -97 -114 -184 -114c-132 0 -235 102 -235 258s103 258 235 258c87 0 149 -46 184 -114zM276 52c104 0 178 75 178 198
s-74 198 -178 198s-178 -75 -178 -198s74 -198 178 -198zM286 -156c-28 0 -49 22 -49 51c0 28 21 50 49 50c29 0 51 -22 51 -50c0 -29 -22 -51 -51 -51z" />
    <glyph glyph-name="uni1EB1.ss02" horiz-adv-x="575" 
d="M330 693h-65l-69 93h74zM286 570c-67 0 -124 37 -140 100h63c13 -31 41 -47 77 -47s64 16 77 47h63c-16 -63 -73 -100 -140 -100zM452 394v106h65v-500h-65v106c-35 -68 -97 -114 -184 -114c-132 0 -235 102 -235 258s103 258 235 258c87 0 149 -46 184 -114zM276 52
c104 0 178 75 178 198s-74 198 -178 198s-178 -75 -178 -198s74 -198 178 -198z" />
    <glyph glyph-name="uni1EB3.ss02" horiz-adv-x="575" 
d="M321 693h-60c26 32 33 43 33 56c0 16 -10 25 -27 25s-30 -13 -40 -30l-44 26c15 37 48 59 87 59c52 0 84 -32 84 -72c0 -24 -10 -43 -33 -64zM286 570c-67 0 -124 37 -140 100h63c13 -31 41 -47 77 -47s64 16 77 47h63c-16 -63 -73 -100 -140 -100zM452 394v106h65v-500
h-65v106c-35 -68 -97 -114 -184 -114c-132 0 -235 102 -235 258s103 258 235 258c87 0 149 -46 184 -114zM276 52c104 0 178 75 178 198s-74 198 -178 198s-178 -75 -178 -198s74 -198 178 -198z" />
    <glyph glyph-name="uni1EB5.ss02" horiz-adv-x="575" 
d="M346 693c-68 0 -84 46 -117 46c-16 0 -31 -9 -31 -42h-58c0 71 47 94 88 94c68 0 84 -47 117 -47c16 0 31 10 31 42h58c0 -71 -47 -93 -88 -93zM286 570c-67 0 -124 37 -140 100h63c13 -31 41 -47 77 -47s64 16 77 47h63c-16 -63 -73 -100 -140 -100zM452 394v106h65
v-500h-65v106c-35 -68 -97 -114 -184 -114c-132 0 -235 102 -235 258s103 258 235 258c87 0 149 -46 184 -114zM276 52c104 0 178 75 178 198s-74 198 -178 198s-178 -75 -178 -198s74 -198 178 -198z" />
    <glyph glyph-name="uni01CE.ss02" horiz-adv-x="575" 
d="M446 718l-131 -134h-57l-131 134h81l79 -84l78 84h81zM452 394v106h65v-500h-65v106c-35 -68 -97 -114 -184 -114c-132 0 -235 102 -235 258s103 258 235 258c87 0 149 -46 184 -114zM276 52c104 0 178 75 178 198s-74 198 -178 198s-178 -75 -178 -198s74 -198 178 -198
z" />
    <glyph glyph-name="acircumflex.ss02" horiz-adv-x="575" 
d="M365 584l-79 84l-78 -84h-81l131 134h57l131 -134h-81zM452 394v106h65v-500h-65v106c-35 -68 -97 -114 -184 -114c-132 0 -235 102 -235 258s103 258 235 258c87 0 149 -46 184 -114zM276 52c104 0 178 75 178 198s-74 198 -178 198s-178 -75 -178 -198
s74 -198 178 -198z" />
    <glyph glyph-name="uni1EA5.ss02" horiz-adv-x="575" 
d="M439 762h74l-69 -93h-65zM365 571l-79 84l-78 -84h-81l131 134h57l131 -134h-81zM452 394v106h65v-500h-65v106c-35 -68 -97 -114 -184 -114c-132 0 -235 102 -235 258s103 258 235 258c87 0 149 -46 184 -114zM276 52c104 0 178 75 178 198s-74 198 -178 198
s-178 -75 -178 -198s74 -198 178 -198z" />
    <glyph glyph-name="uni1EAD.ss02" horiz-adv-x="575" 
d="M365 584l-79 84l-78 -84h-81l131 134h57l131 -134h-81zM452 394v106h65v-500h-65v106c-35 -68 -97 -114 -184 -114c-132 0 -235 102 -235 258s103 258 235 258c87 0 149 -46 184 -114zM276 52c104 0 178 75 178 198s-74 198 -178 198s-178 -75 -178 -198
s74 -198 178 -198zM286 -55c29 0 51 -22 51 -50c0 -29 -22 -51 -51 -51c-28 0 -49 22 -49 51c0 28 21 50 49 50z" />
    <glyph glyph-name="uni1EA7.ss02" horiz-adv-x="575" 
d="M404 762l60 -93h-65l-69 93h74zM365 571l-79 84l-78 -84h-81l131 134h57l131 -134h-81zM452 394v106h65v-500h-65v106c-35 -68 -97 -114 -184 -114c-132 0 -235 102 -235 258s103 258 235 258c87 0 149 -46 184 -114zM276 52c104 0 178 75 178 198s-74 198 -178 198
s-178 -75 -178 -198s74 -198 178 -198z" />
    <glyph glyph-name="uni1EA9.ss02" horiz-adv-x="575" 
d="M397 739c-16 0 -28 -11 -38 -27l-44 26c15 36 47 56 85 56c52 0 84 -32 84 -72c0 -24 -12 -43 -33 -64h-60c22 27 33 43 33 56c0 16 -10 25 -27 25zM364 571l-79 84l-78 -84h-81l131 134h57l131 -134h-81zM452 394v106h65v-500h-65v106c-35 -68 -97 -114 -184 -114
c-132 0 -235 102 -235 258s103 258 235 258c87 0 149 -46 184 -114zM276 52c104 0 178 75 178 198s-74 198 -178 198s-178 -75 -178 -198s74 -198 178 -198z" />
    <glyph glyph-name="uni1EAB.ss02" horiz-adv-x="575" 
d="M230 736c-16 0 -31 -9 -31 -42h-58c0 73 48 97 89 97c68 0 84 -47 117 -47c16 0 31 10 31 42h58c0 -73 -48 -96 -89 -96c-68 0 -84 46 -117 46zM359 569l-73 57l-72 -57h-87l133 104h53l133 -104h-87zM452 394v106h65v-500h-65v106c-35 -68 -97 -114 -184 -114
c-132 0 -235 102 -235 258s103 258 235 258c87 0 149 -46 184 -114zM276 52c104 0 178 75 178 198s-74 198 -178 198s-178 -75 -178 -198s74 -198 178 -198z" />
    <glyph glyph-name="adieresis.ss02" horiz-adv-x="575" 
d="M176 596c-26 0 -45 18 -45 45s19 45 45 45s45 -18 45 -45s-19 -45 -45 -45zM396 596c-26 0 -45 18 -45 45s19 45 45 45s45 -18 45 -45s-19 -45 -45 -45zM452 394v106h65v-500h-65v106c-35 -68 -97 -114 -184 -114c-132 0 -235 102 -235 258s103 258 235 258
c87 0 149 -46 184 -114zM276 52c104 0 178 75 178 198s-74 198 -178 198s-178 -75 -178 -198s74 -198 178 -198z" />
    <glyph glyph-name="uni1EA1.ss02" horiz-adv-x="575" 
d="M452 394v106h65v-500h-65v106c-35 -68 -97 -114 -184 -114c-132 0 -235 102 -235 258s103 258 235 258c87 0 149 -46 184 -114zM276 52c104 0 178 75 178 198s-74 198 -178 198s-178 -75 -178 -198s74 -198 178 -198zM286 -156c-28 0 -49 22 -49 51c0 28 21 50 49 50
c29 0 51 -22 51 -50c0 -29 -22 -51 -51 -51z" />
    <glyph glyph-name="agrave.ss02" horiz-adv-x="575" 
d="M333 584h-65l-95 134h74zM452 394v106h65v-500h-65v106c-35 -68 -97 -114 -184 -114c-132 0 -235 102 -235 258s103 258 235 258c87 0 149 -46 184 -114zM276 52c104 0 178 75 178 198s-74 198 -178 198s-178 -75 -178 -198s74 -198 178 -198z" />
    <glyph glyph-name="uni1EA3.ss02" horiz-adv-x="575" 
d="M334 565h-62c25 33 37 56 37 70c0 16 -10 25 -27 25s-30 -13 -40 -30l-44 26c15 37 48 59 87 59c52 0 84 -32 84 -72c0 -29 -17 -57 -35 -78zM452 394v106h65v-500h-65v106c-35 -68 -97 -114 -184 -114c-132 0 -235 102 -235 258s103 258 235 258c87 0 149 -46 184 -114z
M276 52c104 0 178 75 178 198s-74 198 -178 198s-178 -75 -178 -198s74 -198 178 -198z" />
    <glyph glyph-name="amacron.ss02" horiz-adv-x="575" 
d="M434 612h-295v59h295v-59zM452 394v106h65v-500h-65v106c-35 -68 -97 -114 -184 -114c-132 0 -235 102 -235 258s103 258 235 258c87 0 149 -46 184 -114zM276 52c104 0 178 75 178 198s-74 198 -178 198s-178 -75 -178 -198s74 -198 178 -198z" />
    <glyph glyph-name="aogonek.ss02" horiz-adv-x="575" 
d="M491 -109h39v-59h-43c-63 0 -94 31 -94 70c0 24 12 51 38 75l25 23h-4v106c-35 -68 -97 -114 -184 -114c-132 0 -235 102 -235 258s103 258 235 258c87 0 149 -46 184 -114v106h65v-500h1l-38 -39c-15 -15 -22 -30 -22 -43c0 -16 12 -27 33 -27zM276 52
c104 0 178 75 178 198s-74 198 -178 198s-178 -75 -178 -198s74 -198 178 -198z" />
    <glyph glyph-name="aring.ss02" horiz-adv-x="575" 
d="M287 555c-62 0 -112 39 -112 98s50 99 112 99s111 -40 111 -99s-49 -98 -111 -98zM287 605c33 0 56 19 56 48s-23 48 -56 48s-56 -19 -56 -48s23 -48 56 -48zM452 394v106h65v-500h-65v106c-35 -68 -97 -114 -184 -114c-132 0 -235 102 -235 258s103 258 235 258
c87 0 149 -46 184 -114zM276 52c104 0 178 75 178 198s-74 198 -178 198s-178 -75 -178 -198s74 -198 178 -198z" />
    <glyph glyph-name="atilde.ss02" horiz-adv-x="575" 
d="M347 589c-68 0 -84 64 -117 64c-16 0 -31 -11 -31 -58h-58c0 91 48 115 89 115c68 0 84 -64 117 -64c16 0 31 11 31 58h58c0 -91 -48 -115 -89 -115zM452 394v106h65v-500h-65v106c-35 -68 -97 -114 -184 -114c-132 0 -235 102 -235 258s103 258 235 258
c87 0 149 -46 184 -114zM276 52c104 0 178 75 178 198s-74 198 -178 198s-178 -75 -178 -198s74 -198 178 -198z" />
    <glyph glyph-name="l.ss03" horiz-adv-x="181" 
d="M123 0h-65v700h65v-700z" />
    <glyph glyph-name="lacute.ss03" horiz-adv-x="181" 
d="M109 784h-65l86 134h74zM123 0h-65v700h65v-700z" />
    <glyph glyph-name="lcaron.ss03" horiz-adv-x="201" 
d="M123 700v-700h-65v700h65zM188 512v188h59v-87l-20 -101h-39z" />
    <glyph glyph-name="uni013C.ss03" horiz-adv-x="181" 
d="M58 700h65v-700h-65v700zM89 -47c29 0 51 -20 51 -45c0 -12 -2 -22 -18 -48l-38 -60l-38 23l28 44c-21 4 -34 22 -34 41c0 25 21 45 49 45z" />
    <glyph glyph-name="ldot.ss03" horiz-adv-x="289" 
d="M123 0h-65v700h65v-700zM234 311c-28 0 -49 22 -49 51c0 28 21 50 49 50c29 0 51 -22 51 -50c0 -29 -22 -51 -51 -51z" />
    <glyph glyph-name="uni1E37.ss03" horiz-adv-x="181" 
d="M123 700v-700h-65v700h65zM90 -156c-28 0 -49 22 -49 51c0 28 21 50 49 50c29 0 51 -22 51 -50c0 -29 -22 -51 -51 -51z" />
    <glyph glyph-name="uni1E39.ss03" horiz-adv-x="181" 
d="M239 812h-295v59h295v-59zM58 700h65v-700h-65v700zM90 -156c-28 0 -49 22 -49 51c0 28 21 50 49 50c29 0 51 -22 51 -50c0 -29 -22 -51 -51 -51z" />
    <glyph glyph-name="uni01C9.ss03" horiz-adv-x="362" 
d="M271 616c-28 0 -49 22 -49 51c0 28 21 50 49 50c29 0 51 -22 51 -50c0 -29 -22 -51 -51 -51zM58 0v700h65v-700h-65zM239 -38v538h65v-541c0 -83 -41 -127 -110 -127h-23v61h17c33 0 51 22 51 69z" />
    <glyph glyph-name="uni1E3B.ss03" horiz-adv-x="181" 
d="M123 0h-65v700h65v-700zM238 -134h-295v59h295v-59z" />
    <glyph glyph-name="lslash.ss03" horiz-adv-x="288" 
d="M174 412l103 32v-59l-103 -32v-353h-65v337l-91 -27v59l91 27v304h65v-288z" />
    <glyph glyph-name="fi" unicode="&#xfb01;" horiz-adv-x="472" 
d="M381 616c-28 0 -49 22 -49 51c0 28 21 50 49 50c29 0 51 -22 51 -50c0 -29 -22 -51 -51 -51zM229 704h54v-59h-49c-51 0 -71 -29 -71 -79v-66h120v-59h-120v-441h-65v441h-86v59h86v70c0 76 42 134 131 134zM349 0v500h65v-500h-65z" />
    <glyph glyph-name="fl" unicode="&#xfb02;" horiz-adv-x="528" 
d="M229 704h54v-59h-49c-51 0 -71 -29 -71 -79v-66h120v-59h-120v-441h-65v441h-86v59h86v70c0 76 42 134 131 134zM479 59h44v-59h-49c-84 0 -123 55 -123 127v573h65v-569c0 -46 18 -72 63 -72z" />
    <glyph glyph-name="L_periodcentered.latnCAT" horiz-adv-x="512" 
d="M137 64h363v-64h-430v700h67v-636zM358 291c-28 0 -49 22 -49 51c0 28 21 50 49 50c29 0 51 -22 51 -50c0 -29 -22 -51 -51 -51z" />
    <glyph glyph-name="l_periodcentered.latnCAT" horiz-adv-x="289" 
d="M188 59h44v-59h-49c-84 0 -123 55 -123 127v573h65v-569c0 -46 18 -72 63 -72zM236 311c-28 0 -49 22 -49 51c0 28 21 50 49 50c29 0 51 -22 51 -50c0 -29 -22 -51 -51 -51z" />
    <glyph glyph-name="fl.ss03" horiz-adv-x="472" 
d="M229 704h54v-59h-49c-51 0 -71 -29 -71 -79v-66h120v-59h-120v-441h-65v441h-86v59h86v70c0 76 42 134 131 134zM414 0h-65v700h65v-700z" />
    <glyph glyph-name="l_periodcentered.latnCAT.ss03" horiz-adv-x="289" 
d="M123 0h-65v700h65v-700zM234 311c-28 0 -49 22 -49 51c0 28 21 50 49 50c29 0 51 -22 51 -50c0 -29 -22 -51 -51 -51z" />
    <glyph glyph-name="ordfeminine" unicode="&#xaa;" horiz-adv-x="319" 
d="M155 708c60 0 115 -31 115 -101v-160h-51v25c-16 -20 -44 -31 -81 -31c-59 0 -104 29 -104 80c0 49 46 79 107 79c34 0 59 -9 75 -25v27c0 40 -27 57 -62 57c-32 0 -52 -12 -62 -32l-46 18c15 43 58 63 109 63zM154 482c37 0 64 14 64 39s-27 39 -64 39s-64 -13 -64 -39
s27 -39 64 -39z" />
    <glyph glyph-name="ordmasculine" unicode="&#xba;" horiz-adv-x="332" 
d="M166 708c77 0 135 -55 135 -133c0 -79 -58 -134 -135 -134c-78 0 -135 55 -135 134c0 78 57 133 135 133zM166 659c-46 0 -79 -31 -79 -84c0 -54 33 -85 79 -85c45 0 79 31 79 85c0 53 -34 84 -79 84z" />
    <glyph glyph-name="ordfeminine.ss02" horiz-adv-x="350" 
d="M242 657v45h54v-255h-54v45c-17 -29 -46 -50 -89 -50c-70 0 -121 55 -121 133c0 77 51 133 121 133c43 0 72 -22 89 -51zM165 491c45 0 78 34 78 84c0 49 -33 83 -78 83s-77 -32 -77 -83c0 -52 32 -84 77 -84z" />
    <glyph glyph-name="uni0410" unicode="&#x410;" horiz-adv-x="637" 
d="M474 221h-312l-87 -221h-70l282 700h63l283 -700h-72zM318 615l-131 -331h262z" />
    <glyph glyph-name="uni0411" unicode="&#x411;" horiz-adv-x="587" 
d="M137 408h204c130 0 221 -70 221 -204s-91 -204 -221 -204h-271v700h446v-63h-379v-229zM137 63h198c100 0 157 42 157 141s-57 141 -157 141h-198v-282z" />
    <glyph glyph-name="uni0412" unicode="&#x412;" horiz-adv-x="623" 
d="M441 372c87 -16 150 -76 150 -173c0 -137 -102 -199 -244 -199h-277v700h254c138 0 234 -55 234 -182c0 -76 -47 -128 -117 -146zM324 637h-187v-239h187c97 0 164 26 164 120c0 92 -67 119 -164 119zM347 335h-210v-272h210c105 0 174 33 174 136s-69 136 -174 136z" />
    <glyph glyph-name="uni0413" unicode="&#x413;" horiz-adv-x="512" 
d="M500 700v-64h-363v-636h-67v700h430z" />
    <glyph glyph-name="uni0403" unicode="&#x403;" horiz-adv-x="512" 
d="M303 784h-65l86 134h74zM500 700v-64h-363v-636h-67v700h430z" />
    <glyph glyph-name="uni0490" unicode="&#x490;" horiz-adv-x="519" 
d="M443 700v146h64v-210h-370v-636h-67v700h373z" />
    <glyph glyph-name="uni0414" unicode="&#x414;" horiz-adv-x="692" 
d="M597 700v-637h71v-210h-64v147h-530v-147h-64v210h58c44 20 65 90 69 281l8 356h452zM143 63h387v574h-321l-7 -318c-3 -135 -21 -214 -59 -256z" />
    <glyph glyph-name="uni0415" unicode="&#x415;" horiz-adv-x="569" 
d="M70 0v700h465v-63h-398v-253h359v-63h-359v-258h398v-63h-465z" />
    <glyph glyph-name="uni0400" unicode="&#x400;" horiz-adv-x="569" 
d="M348 784h-65l-95 134h74zM137 63h398v-63h-465v700h465v-63h-398v-253h359v-63h-359v-258z" />
    <glyph glyph-name="uni0401" unicode="&#x401;" horiz-adv-x="569" 
d="M191 796c-26 0 -45 18 -45 45s19 45 45 45s45 -18 45 -45s-19 -45 -45 -45zM411 796c-26 0 -45 18 -45 45s19 45 45 45s45 -18 45 -45s-19 -45 -45 -45zM70 0v700h465v-63h-398v-253h359v-63h-359v-258h398v-63h-465z" />
    <glyph glyph-name="uni0416" unicode="&#x416;" horiz-adv-x="897" 
d="M804 700h81l-334 -344l362 -356h-87l-344 337v-337h-67v337l-344 -337h-87l362 356l-334 344h81l322 -334v334h67v-334z" />
    <glyph glyph-name="uni0417" unicode="&#x417;" horiz-adv-x="582" 
d="M385 363c107 -20 162 -81 162 -172c0 -151 -142 -199 -269 -199c-100 0 -221 44 -265 192l63 23c34 -114 128 -150 201 -150c100 0 200 32 200 134s-90 137 -208 137h-82v63h82c111 0 182 38 182 125c0 76 -66 127 -171 127c-89 0 -152 -37 -192 -138l-58 26
c40 116 136 177 254 177c141 0 237 -77 237 -189c0 -79 -48 -133 -136 -156z" />
    <glyph glyph-name="uni0418" unicode="&#x418;" horiz-adv-x="702" 
d="M632 700v-700h-67v583l-438 -583h-57v700h67v-582l441 582h54z" />
    <glyph glyph-name="uni0419" unicode="&#x419;" horiz-adv-x="702" 
d="M351 780c-80 0 -145 52 -145 138h61c0 -54 35 -83 84 -83s84 29 84 83h61c0 -86 -65 -138 -145 -138zM565 583l-438 -583h-57v700h67v-582l441 582h54v-700h-67v583z" />
    <glyph glyph-name="uni040D" unicode="&#x40d;" horiz-adv-x="702" 
d="M398 784h-65l-95 134h74zM565 0v583l-438 -583h-57v700h67v-582l441 582h54v-700h-67z" />
    <glyph glyph-name="uni041A" unicode="&#x41a;" horiz-adv-x="589" 
d="M70 0v700h67v-336l353 336h91l-368 -344l394 -356h-96l-374 338v-338h-67z" />
    <glyph glyph-name="uni040C" unicode="&#x40c;" horiz-adv-x="589" 
d="M321 784h-65l86 134h74zM70 0v700h67v-336l353 336h91l-368 -344l394 -356h-96l-374 338v-338h-67z" />
    <glyph glyph-name="uni041B" unicode="&#x41b;" horiz-adv-x="672" 
d="M29 -9l-17 63c70 21 106 64 110 230l10 416h470v-700h-67v637h-339l-8 -360c-4 -205 -65 -260 -159 -286z" />
    <glyph glyph-name="uni041C" unicode="&#x41c;" horiz-adv-x="789" 
d="M70 0v701h61l265 -370l263 370h60v-701h-67v579l-249 -348h-15l-251 348v-579h-67z" />
    <glyph glyph-name="uni041D" unicode="&#x41d;" horiz-adv-x="691" 
d="M554 0v321h-417v-321h-67v700h67v-316h417v316h67v-700h-67z" />
    <glyph glyph-name="uni041E" unicode="&#x41e;" horiz-adv-x="767" 
d="M384 -9c-205 0 -349 146 -349 359s144 359 349 359s348 -146 348 -359s-143 -359 -348 -359zM384 56c160 0 278 112 278 294s-118 294 -278 294s-279 -112 -279 -294s119 -294 279 -294z" />
    <glyph glyph-name="uni041F" unicode="&#x41f;" horiz-adv-x="678" 
d="M70 700h538v-700h-67v637h-404v-637h-67v700z" />
    <glyph glyph-name="uni0420" unicode="&#x420;" horiz-adv-x="590" 
d="M70 0v700h243c154 0 254 -81 254 -222s-100 -223 -254 -223h-176v-255h-67zM306 637h-169v-319h169c121 0 191 54 191 160s-70 159 -191 159z" />
    <glyph glyph-name="uni0421" unicode="&#x421;" horiz-adv-x="700" 
d="M378 -9c-199 0 -342 146 -342 359s143 359 342 359c144 0 255 -79 305 -206l-63 -29c-39 107 -129 170 -242 170c-155 0 -272 -112 -272 -294s117 -294 272 -294c113 0 203 63 242 170l63 -29c-50 -127 -161 -206 -305 -206z" />
    <glyph glyph-name="uni0422" unicode="&#x422;" horiz-adv-x="553" 
d="M541 700v-64h-231v-636h-67v636h-231v64h529z" />
    <glyph glyph-name="uni0423" unicode="&#x423;" horiz-adv-x="595" 
d="M187 0l86 176l-261 524h74l222 -452l213 452h71l-333 -700h-72z" />
    <glyph glyph-name="uni040E" unicode="&#x40e;" horiz-adv-x="595" 
d="M301 780c-80 0 -145 52 -145 138h61c0 -54 35 -83 84 -83s84 29 84 83h61c0 -86 -65 -138 -145 -138zM86 700l222 -452l213 452h71l-333 -700h-72l86 176l-261 524h74z" />
    <glyph glyph-name="uni0424" unicode="&#x424;" horiz-adv-x="801" 
d="M769 354c0 -177 -125 -293 -335 -300v-75h-67v75c-210 7 -335 123 -335 300c0 178 125 293 335 300v72h67v-72c210 -7 335 -122 335 -300zM102 354c0 -146 91 -231 265 -237v474c-175 -6 -265 -90 -265 -237zM434 591v-474c174 6 265 91 265 237c0 147 -90 231 -265 237z
" />
    <glyph glyph-name="uni0425" unicode="&#x425;" horiz-adv-x="605" 
d="M531 0l-229 305l-230 -305h-79l270 357l-258 343h81l217 -289l218 289h79l-257 -341l269 -359h-81z" />
    <glyph glyph-name="uni0427" unicode="&#x427;" horiz-adv-x="601" 
d="M464 359v341h67v-700h-67v297c-57 -17 -114 -25 -171 -25c-155 0 -253 90 -253 244v184h67v-184c0 -118 68 -179 186 -179c49 0 112 5 171 22z" />
    <glyph glyph-name="uni0426" unicode="&#x426;" horiz-adv-x="692" 
d="M597 700v-637h71v-199h-64v136h-534v700h67v-637h393v637h67z" />
    <glyph glyph-name="uni0428" unicode="&#x428;" horiz-adv-x="1011" 
d="M874 63v637h67v-700h-871v700h67v-637h335v637h67v-637h335z" />
    <glyph glyph-name="uni0429" unicode="&#x429;" horiz-adv-x="1036" 
d="M941 700v-637h71v-199h-64v136h-878v700h67v-637h335v637h67v-637h335v637h67z" />
    <glyph glyph-name="uni040F" unicode="&#x40f;" horiz-adv-x="667" 
d="M530 700h67v-700h-231v-136h-64v136h-232v700h67v-637h393v637z" />
    <glyph glyph-name="uni042C" unicode="&#x42c;" horiz-adv-x="585" 
d="M137 421h190c138 0 235 -71 235 -205c0 -144 -97 -216 -235 -216h-257v700h67v-279zM137 63h184c109 0 171 45 171 153c0 99 -62 142 -171 142h-184v-295z" />
    <glyph glyph-name="uni042A" unicode="&#x42a;" horiz-adv-x="688" 
d="M240 421h190c138 0 235 -71 235 -205c0 -144 -97 -216 -235 -216h-257v637h-158v63h225v-279zM240 63h184c109 0 171 45 171 153c0 99 -62 142 -171 142h-184v-295z" />
    <glyph glyph-name="uni042B" unicode="&#x42b;" horiz-adv-x="816" 
d="M137 700v-279h190c138 0 235 -71 235 -205c0 -144 -97 -216 -235 -216h-257v700h67zM746 0h-67v700h67v-700zM137 358v-295h184c109 0 171 45 171 153c0 99 -62 142 -171 142h-184z" />
    <glyph glyph-name="uni0409" unicode="&#x409;" horiz-adv-x="1033" 
d="M585 421h190c138 0 235 -71 235 -205c0 -144 -97 -216 -235 -216h-257v637h-321l-8 -360c-5 -204 -65 -260 -159 -286l-17 63c70 21 106 64 110 230l10 416h452v-279zM585 63h184c109 0 171 45 171 153c0 99 -62 142 -171 142h-184v-295z" />
    <glyph glyph-name="uni040A" unicode="&#x40a;" horiz-adv-x="1030" 
d="M582 421h190c138 0 235 -71 235 -205c0 -144 -97 -216 -235 -216h-257v358h-378v-358h-67v700h67v-279h378v279h67v-279zM582 63h184c109 0 171 45 171 153c0 99 -62 142 -171 142h-184v-295z" />
    <glyph glyph-name="uni0405" unicode="&#x405;" horiz-adv-x="591" 
d="M305 -9c-164 0 -259 90 -286 220l65 16c24 -110 100 -171 221 -171c113 0 186 46 186 120c0 62 -44 104 -167 136l-100 26c-111 29 -173 93 -173 181c0 112 97 190 239 190c141 0 233 -70 262 -203l-65 -16c-23 108 -98 154 -195 154c-100 0 -170 -47 -170 -118
c0 -68 43 -99 134 -124l99 -27c139 -38 206 -104 206 -192c0 -116 -100 -192 -256 -192z" />
    <glyph glyph-name="uni0404" unicode="&#x404;" horiz-adv-x="704" 
d="M378 56c113 0 203 63 242 170l63 -29c-50 -127 -161 -206 -305 -206c-199 0 -342 146 -342 359s143 359 342 359c144 0 255 -79 305 -206l-63 -29c-39 107 -129 170 -242 170c-145 0 -257 -98 -271 -260h357v-63h-357c12 -165 124 -265 271 -265z" />
    <glyph glyph-name="uni042D" unicode="&#x42d;" horiz-adv-x="704" 
d="M326 709c199 0 342 -146 342 -359s-143 -359 -342 -359c-144 0 -255 79 -305 206l63 29c39 -107 129 -170 242 -170c147 0 259 100 271 265h-357v63h357c-14 162 -126 260 -271 260c-113 0 -203 -63 -242 -170l-63 29c50 127 161 206 305 206z" />
    <glyph glyph-name="uni0406" unicode="&#x406;" horiz-adv-x="207" 
d="M70 700h67v-700h-67v700z" />
    <glyph glyph-name="uni0407" unicode="&#x407;" horiz-adv-x="207" 
d="M-7 796c-26 0 -45 18 -45 45s19 45 45 45s45 -18 45 -45s-19 -45 -45 -45zM213 796c-26 0 -45 18 -45 45s19 45 45 45s45 -18 45 -45s-19 -45 -45 -45zM137 0h-67v700h67v-700z" />
    <glyph glyph-name="uni0408" unicode="&#x408;" horiz-adv-x="484" 
d="M212 -8c-102 0 -171 60 -206 136l54 34c24 -59 77 -106 150 -106c84 0 142 50 142 162v482h67v-487c0 -142 -89 -221 -207 -221z" />
    <glyph glyph-name="uni040B" unicode="&#x40b;" horiz-adv-x="742" 
d="M472 429c147 0 235 -74 235 -221v-208h-67v194c0 121 -63 172 -174 172c-50 0 -115 -8 -176 -34v-332h-67v636h-211v64h559v-64h-281v-243c61 24 122 36 182 36z" />
    <glyph glyph-name="uni042E" unicode="&#x42e;" horiz-adv-x="970" 
d="M601 709c196 0 333 -143 333 -359s-137 -359 -333 -359c-187 0 -321 130 -333 330h-131v-321h-67v700h67v-316h131c14 197 147 325 333 325zM601 56c151 0 263 109 263 294s-112 294 -263 294s-264 -109 -264 -294s113 -294 264 -294z" />
    <glyph glyph-name="uni042F" unicode="&#x42f;" horiz-adv-x="619" 
d="M549 700v-700h-67v275h-166l-217 -275h-83l224 278c-115 16 -193 93 -193 210c0 135 92 212 237 212h265zM290 338h192v299h-192c-111 0 -173 -52 -173 -149s61 -150 173 -150z" />
    <glyph glyph-name="uni0402" unicode="&#x402;" horiz-adv-x="734" 
d="M473 429c142 0 241 -79 241 -217c0 -136 -91 -215 -221 -215h-58v63h52c100 0 157 50 157 152s-64 152 -177 152c-59 0 -118 -8 -177 -32v-332h-67v636h-211v64h559v-64h-281v-240c61 23 122 33 183 33z" />
    <glyph glyph-name="uni0462" unicode="&#x462;" horiz-adv-x="695" 
d="M242 408h204c130 0 221 -70 221 -204s-91 -204 -221 -204h-271v531h-155v64h155v120h67v-120h307v-64h-307v-123zM242 63h198c100 0 157 42 157 141s-57 141 -157 141h-198v-282z" />
    <glyph glyph-name="uni0472" unicode="&#x472;" horiz-adv-x="767" 
d="M384 709c205 0 348 -146 348 -359s-143 -359 -348 -359s-349 146 -349 359s144 359 349 359zM384 644c-145 0 -257 -93 -276 -246c40 19 79 25 117 25c115 0 215 -62 323 -62c37 0 74 7 112 27c-15 159 -127 256 -276 256zM384 56c152 0 266 101 277 266
c-41 -19 -81 -26 -119 -26c-115 0 -215 62 -323 62c-37 0 -75 -7 -114 -27c9 -171 125 -275 279 -275z" />
    <glyph glyph-name="uni0474" unicode="&#x474;" horiz-adv-x="692" 
d="M624 705c19 0 38 -4 57 -12l-21 -59c-8 4 -19 6 -30 6c-33 0 -48 -21 -62 -56l-226 -584h-63l-273 701h72l233 -607l199 520c21 54 55 91 114 91z" />
    <glyph glyph-name="uni0492" unicode="&#x492;" horiz-adv-x="541" 
d="M529 700v-64h-363v-264h234v-63h-234v-309h-67v309h-89v63h89v328h430z" />
    <glyph glyph-name="uni0496" unicode="&#x496;" horiz-adv-x="932" 
d="M551 356l298 -293h89v-199h-64v136h-48l-344 337v-337h-67v337l-344 -337h-87l362 356l-334 344h81l322 -334v334h67v-334l322 334h81z" />
    <glyph glyph-name="uni0498" unicode="&#x498;" horiz-adv-x="582" 
d="M547 191c0 -137 -116 -189 -233 -198l18 -16c26 -24 38 -51 38 -75c0 -39 -31 -70 -94 -70h-58v59h54c21 0 33 11 33 27c0 13 -7 28 -22 43l-31 32c-94 7 -199 56 -239 191l63 23c34 -114 128 -150 201 -150c100 0 200 32 200 134s-90 137 -208 137h-82v63h82
c111 0 182 38 182 125c0 76 -66 127 -171 127c-89 0 -152 -37 -192 -138l-58 26c40 116 136 177 254 177c141 0 237 -77 237 -189c0 -79 -48 -133 -136 -156c107 -20 162 -81 162 -172z" />
    <glyph glyph-name="uni049A" unicode="&#x49a;" horiz-adv-x="620" 
d="M213 356l324 -293h89v-199h-64v136h-51l-374 338v-338h-67v700h67v-336l353 336h91z" />
    <glyph glyph-name="uni049C" unicode="&#x49c;" horiz-adv-x="622" 
d="M636 0h-85l-245 321h-24v-192h-64v192h-81v-321h-67v700h67v-316h81v187h64v-187h24l224 316h80l-250 -344z" />
    <glyph glyph-name="uni04A0" unicode="&#x4a0;" horiz-adv-x="755" 
d="M747 700l-368 -344l394 -356h-96l-374 338v-338h-67v637h-225v63h292v-336l353 336h91z" />
    <glyph glyph-name="uni04A2" unicode="&#x4a2;" horiz-adv-x="716" 
d="M621 700v-637h71v-199h-64v136h-74v321h-417v-321h-67v700h67v-316h417v316h67z" />
    <glyph glyph-name="uni04A4" unicode="&#x4a4;" horiz-adv-x="887" 
d="M876 700v-63h-255v-637h-67v321h-417v-321h-67v700h67v-316h417v316h322z" />
    <glyph glyph-name="uni04AA" unicode="&#x4aa;" horiz-adv-x="700" 
d="M378 56c113 0 203 63 242 170l63 -29c-46 -116 -143 -192 -269 -204l17 -16c26 -24 38 -51 38 -75c0 -39 -31 -70 -94 -70h-58v59h54c21 0 33 11 33 27c0 13 -7 28 -22 43l-30 31c-185 12 -316 154 -316 358c0 213 143 359 342 359c144 0 255 -79 305 -206l-63 -29
c-39 107 -129 170 -242 170c-155 0 -272 -112 -272 -294s117 -294 272 -294z" />
    <glyph glyph-name="uni04AE" unicode="&#x4ae;" horiz-adv-x="651" 
d="M560 700h78l-279 -358v-342h-67v343l-280 357h80l234 -290z" />
    <glyph glyph-name="uni04B0" unicode="&#x4b0;" horiz-adv-x="651" 
d="M560 700h78l-278 -357h169v-63h-170v-280h-67v280h-183v63h183l-280 357h80l234 -290z" />
    <glyph glyph-name="uni04B2" unicode="&#x4b2;" horiz-adv-x="642" 
d="M343 359l222 -296h82v-199h-64v136h-52l-229 305l-230 -305h-79l270 357l-258 343h81l217 -289l218 289h79z" />
    <glyph glyph-name="uni04B6" unicode="&#x4b6;" horiz-adv-x="626" 
d="M531 700v-637h71v-199h-64v136h-74v297c-57 -17 -114 -25 -171 -25c-155 0 -253 90 -253 244v184h67v-184c0 -118 68 -179 186 -179c49 0 112 5 171 22v341h67z" />
    <glyph glyph-name="uni04B8" unicode="&#x4b8;" horiz-adv-x="609" 
d="M472 390v310h67v-700h-67v328c-52 -15 -103 -23 -155 -25v-174h-64v177c-133 16 -215 99 -215 232v162h67v-162c0 -97 54 -153 148 -167v200h64v-203c47 1 102 7 155 22z" />
    <glyph glyph-name="uni04BA" unicode="&#x4ba;" horiz-adv-x="604" 
d="M308 428c155 0 253 -90 253 -244v-184h-67v184c0 118 -68 179 -186 179c-49 0 -112 -5 -171 -22v-341h-67v700h67v-297c57 17 114 25 171 25z" />
    <glyph glyph-name="uni04C0" unicode="&#x4c0;" horiz-adv-x="207" 
d="M70 700h67v-700h-67v700z" />
    <glyph glyph-name="uni04C1" unicode="&#x4c1;" horiz-adv-x="897" 
d="M449 780c-80 0 -145 52 -145 138h61c0 -54 35 -83 84 -83s84 29 84 83h61c0 -86 -65 -138 -145 -138zM885 700l-334 -344l362 -356h-87l-344 337v-337h-67v337l-344 -337h-87l362 356l-334 344h81l322 -334v334h67v-334l322 334h81z" />
    <glyph glyph-name="uni04D0" unicode="&#x4d0;" horiz-adv-x="637" 
d="M319 780c-80 0 -145 52 -145 138h61c0 -54 35 -83 84 -83s84 29 84 83h61c0 -86 -65 -138 -145 -138zM287 700h63l283 -700h-72l-87 221h-312l-87 -221h-70zM187 284h262l-131 331z" />
    <glyph glyph-name="uni04D2" unicode="&#x4d2;" horiz-adv-x="637" 
d="M209 796c-26 0 -45 18 -45 45s19 45 45 45s45 -18 45 -45s-19 -45 -45 -45zM429 796c-26 0 -45 18 -45 45s19 45 45 45s45 -18 45 -45s-19 -45 -45 -45zM633 0h-72l-87 221h-312l-87 -221h-70l282 700h63zM449 284l-131 331l-131 -331h262z" />
    <glyph glyph-name="uni04D4" unicode="&#x4d4;" horiz-adv-x="968" 
d="M-13 0l501 700h446v-63h-370v-253h331v-63h-331v-258h370v-63h-437v201h-289l-142 -201h-79zM253 264h244v344z" />
    <glyph glyph-name="uni04D6" unicode="&#x4d6;" horiz-adv-x="569" 
d="M301 780c-80 0 -145 52 -145 138h61c0 -54 35 -83 84 -83s84 29 84 83h61c0 -86 -65 -138 -145 -138zM70 0v700h465v-63h-398v-253h359v-63h-359v-258h398v-63h-465z" />
    <glyph glyph-name="uni04D8" unicode="&#x4d8;" horiz-adv-x="737" 
d="M356 709c197 0 346 -139 346 -359s-147 -358 -339 -358c-197 0 -328 134 -328 348v21h597c-5 177 -124 283 -275 283c-114 0 -207 -61 -255 -183l-61 31c56 138 174 217 315 217zM363 56c135 0 245 89 266 242h-522c17 -154 114 -242 256 -242z" />
    <glyph glyph-name="uni04DA" unicode="&#x4da;" horiz-adv-x="737" 
d="M246 796c-26 0 -45 18 -45 45s19 45 45 45s45 -18 45 -45s-19 -45 -45 -45zM466 796c-26 0 -45 18 -45 45s19 45 45 45s45 -18 45 -45s-19 -45 -45 -45zM356 709c197 0 346 -139 346 -359s-147 -358 -339 -358c-197 0 -328 134 -328 348v21h597c-5 177 -124 283 -275 283
c-114 0 -207 -61 -255 -183l-61 31c56 138 174 217 315 217zM363 56c135 0 245 89 266 242h-522c17 -154 114 -242 256 -242z" />
    <glyph glyph-name="uni04DC" unicode="&#x4dc;" horiz-adv-x="897" 
d="M339 796c-26 0 -45 18 -45 45s19 45 45 45s45 -18 45 -45s-19 -45 -45 -45zM559 796c-26 0 -45 18 -45 45s19 45 45 45s45 -18 45 -45s-19 -45 -45 -45zM804 700h81l-334 -344l362 -356h-87l-344 337v-337h-67v337l-344 -337h-87l362 356l-334 344h81l322 -334v334h67
v-334z" />
    <glyph glyph-name="uni04DE" unicode="&#x4de;" horiz-adv-x="582" 
d="M181 796c-26 0 -45 18 -45 45s19 45 45 45s45 -18 45 -45s-19 -45 -45 -45zM401 796c-26 0 -45 18 -45 45s19 45 45 45s45 -18 45 -45s-19 -45 -45 -45zM385 363c107 -20 162 -81 162 -172c0 -151 -142 -199 -269 -199c-100 0 -221 44 -265 192l63 23
c34 -114 128 -150 201 -150c100 0 200 32 200 134s-90 137 -208 137h-82v63h82c111 0 182 38 182 125c0 76 -66 127 -171 127c-89 0 -152 -37 -192 -138l-58 26c40 116 136 177 254 177c141 0 237 -77 237 -189c0 -79 -48 -133 -136 -156z" />
    <glyph glyph-name="uni04E2" unicode="&#x4e2;" horiz-adv-x="702" 
d="M499 812h-295v59h295v-59zM632 0h-67v583l-438 -583h-57v700h67v-582l441 582h54v-700z" />
    <glyph glyph-name="uni04E4" unicode="&#x4e4;" horiz-adv-x="702" 
d="M241 796c-26 0 -45 18 -45 45s19 45 45 45s45 -18 45 -45s-19 -45 -45 -45zM461 796c-26 0 -45 18 -45 45s19 45 45 45s45 -18 45 -45s-19 -45 -45 -45zM632 700v-700h-67v583l-438 -583h-57v700h67v-582l441 582h54z" />
    <glyph glyph-name="uni04E6" unicode="&#x4e6;" horiz-adv-x="767" 
d="M274 796c-26 0 -45 18 -45 45s19 45 45 45s45 -18 45 -45s-19 -45 -45 -45zM494 796c-26 0 -45 18 -45 45s19 45 45 45s45 -18 45 -45s-19 -45 -45 -45zM384 -9c-205 0 -349 146 -349 359s144 359 349 359s348 -146 348 -359s-143 -359 -348 -359zM384 56
c160 0 278 112 278 294s-118 294 -278 294s-279 -112 -279 -294s119 -294 279 -294z" />
    <glyph glyph-name="uni04E8" unicode="&#x4e8;" horiz-adv-x="767" 
d="M384 709c205 0 348 -146 348 -359s-143 -359 -348 -359s-349 146 -349 359s144 359 349 359zM384 644c-150 0 -264 -98 -278 -260h555c-14 162 -127 260 -277 260zM384 56c151 0 265 100 277 265h-555c12 -165 127 -265 278 -265z" />
    <glyph glyph-name="uni04EA" unicode="&#x4ea;" horiz-adv-x="767" 
d="M274 796c-26 0 -45 18 -45 45s19 45 45 45s45 -18 45 -45s-19 -45 -45 -45zM494 796c-26 0 -45 18 -45 45s19 45 45 45s45 -18 45 -45s-19 -45 -45 -45zM384 709c205 0 348 -146 348 -359s-143 -359 -348 -359s-349 146 -349 359s144 359 349 359zM384 644
c-150 0 -264 -98 -278 -260h555c-14 162 -127 260 -277 260zM384 56c151 0 265 100 277 265h-555c12 -165 127 -265 278 -265z" />
    <glyph glyph-name="uni04EC" unicode="&#x4ec;" horiz-adv-x="704" 
d="M216 796c-26 0 -45 18 -45 45s19 45 45 45s45 -18 45 -45s-19 -45 -45 -45zM436 796c-26 0 -45 18 -45 45s19 45 45 45s45 -18 45 -45s-19 -45 -45 -45zM326 709c199 0 342 -146 342 -359s-143 -359 -342 -359c-144 0 -255 79 -305 206l63 29c39 -107 129 -170 242 -170
c147 0 259 100 271 265h-357v63h357c-14 162 -126 260 -271 260c-113 0 -203 -63 -242 -170l-63 29c50 127 161 206 305 206z" />
    <glyph glyph-name="uni04EE" unicode="&#x4ee;" horiz-adv-x="595" 
d="M449 812h-295v59h295v-59zM12 700h74l222 -452l213 452h71l-333 -700h-72l86 176z" />
    <glyph glyph-name="uni04F0" unicode="&#x4f0;" horiz-adv-x="595" 
d="M191 796c-26 0 -45 18 -45 45s19 45 45 45s45 -18 45 -45s-19 -45 -45 -45zM411 796c-26 0 -45 18 -45 45s19 45 45 45s45 -18 45 -45s-19 -45 -45 -45zM273 176l-261 524h74l222 -452l213 452h71l-333 -700h-72z" />
    <glyph glyph-name="uni04F2" unicode="&#x4f2;" horiz-adv-x="595" 
d="M328 918l-95 -134h-65l86 134h74zM515 918l-95 -134h-65l86 134h74zM187 0l86 176l-261 524h74l222 -452l213 452h71l-333 -700h-72z" />
    <glyph glyph-name="uni04F4" unicode="&#x4f4;" horiz-adv-x="601" 
d="M176 796c-26 0 -45 18 -45 45s19 45 45 45s45 -18 45 -45s-19 -45 -45 -45zM396 796c-26 0 -45 18 -45 45s19 45 45 45s45 -18 45 -45s-19 -45 -45 -45zM464 359v341h67v-700h-67v297c-57 -17 -114 -25 -171 -25c-155 0 -253 90 -253 244v184h67v-184
c0 -118 68 -179 186 -179c49 0 112 5 171 22z" />
    <glyph glyph-name="uni04F8" unicode="&#x4f8;" horiz-adv-x="816" 
d="M303 796c-26 0 -45 18 -45 45s19 45 45 45s45 -18 45 -45s-19 -45 -45 -45zM523 796c-26 0 -45 18 -45 45s19 45 45 45s45 -18 45 -45s-19 -45 -45 -45zM137 700v-279h190c138 0 235 -71 235 -205c0 -144 -97 -216 -235 -216h-257v700h67zM746 0h-67v700h67v-700z
M137 358v-295h184c109 0 171 45 171 153c0 99 -62 142 -171 142h-184z" />
    <glyph glyph-name="uni0430" unicode="&#x430;" horiz-adv-x="508" 
d="M243 508c106 0 212 -55 212 -196v-312h-65v51c-31 -39 -85 -60 -161 -60c-104 0 -203 52 -203 153s99 153 202 153c76 0 131 -22 162 -60v68c0 107 -73 144 -147 144s-129 -41 -145 -105l-56 18c21 92 102 146 201 146zM244 46c83 0 148 34 148 98s-65 98 -148 98
s-151 -32 -151 -98s68 -98 151 -98z" />
    <glyph glyph-name="uni0431" unicode="&#x431;" horiz-adv-x="580" 
d="M305 499c139 0 242 -103 242 -254s-106 -254 -248 -254c-145 0 -257 94 -257 257v51c0 197 75 310 236 355l195 55l13 -59l-203 -57c-100 -28 -164 -90 -182 -202c40 68 111 108 204 108zM295 51c108 0 186 72 186 194s-78 194 -186 194s-186 -72 -186 -194
s78 -194 186 -194z" />
    <glyph glyph-name="uni0432" unicode="&#x432;" horiz-adv-x="506" 
d="M367 266c64 -16 107 -60 107 -124c0 -96 -73 -142 -181 -142h-235v500h216c105 0 174 -41 174 -132c0 -51 -33 -87 -81 -102zM274 441h-151v-151h151c63 0 108 17 108 75c0 59 -45 76 -108 76zM123 59h170c69 0 115 22 115 86c0 65 -46 86 -115 86h-170v-172z" />
    <glyph glyph-name="uni0433" unicode="&#x433;" horiz-adv-x="391" 
d="M123 0h-65v500h317v-59h-252v-441z" />
    <glyph glyph-name="uni0453" unicode="&#x453;" horiz-adv-x="391" 
d="M235 584h-65l86 134h74zM123 0h-65v500h317v-59h-252v-441z" />
    <glyph glyph-name="uni0491" unicode="&#x491;" horiz-adv-x="392" 
d="M314 500v134h62v-193h-253v-441h-65v500h256z" />
    <glyph glyph-name="uni0434" unicode="&#x434;" horiz-adv-x="562" 
d="M475 500v-441h62v-195h-62v136h-409v-136h-62v195h42c45 13 68 66 72 165l11 276h346zM192 441l-9 -222c-3 -76 -22 -129 -58 -160h285v382h-218z" />
    <glyph glyph-name="uni0435" unicode="&#x435;" horiz-adv-x="528" 
d="M495 257c0 -8 0 -14 -1 -21h-395c6 -118 79 -185 171 -185c71 0 132 31 166 117l56 -26c-49 -114 -137 -151 -225 -151c-134 0 -234 105 -234 259c0 159 101 258 236 258c129 0 226 -99 226 -251zM268 448c-89 0 -153 -59 -166 -157h323c-12 105 -75 157 -157 157z" />
    <glyph glyph-name="uni0450" unicode="&#x450;" horiz-adv-x="528" 
d="M316 584h-65l-95 134h74zM495 257c0 -8 0 -14 -1 -21h-395c6 -118 79 -185 171 -185c71 0 132 31 166 117l56 -26c-49 -114 -137 -151 -225 -151c-134 0 -234 105 -234 259c0 159 101 258 236 258c129 0 226 -99 226 -251zM268 448c-89 0 -153 -59 -166 -157h323
c-12 105 -75 157 -157 157z" />
    <glyph glyph-name="uni0451" unicode="&#x451;" horiz-adv-x="528" 
d="M159 596c-26 0 -45 18 -45 45s19 45 45 45s45 -18 45 -45s-19 -45 -45 -45zM379 596c-26 0 -45 18 -45 45s19 45 45 45s45 -18 45 -45s-19 -45 -45 -45zM495 257c0 -8 0 -14 -1 -21h-395c6 -118 79 -185 171 -185c71 0 132 31 166 117l56 -26
c-49 -114 -137 -151 -225 -151c-134 0 -234 105 -234 259c0 159 101 258 236 258c129 0 226 -99 226 -251zM268 448c-89 0 -153 -59 -166 -157h323c-12 105 -75 157 -157 157z" />
    <glyph glyph-name="uni0436" unicode="&#x436;" horiz-adv-x="661" 
d="M575 500h78l-224 -248l238 -252h-79l-225 241v-241h-65v241l-225 -241h-79l238 252l-224 248h78l212 -239v239h65v-239z" />
    <glyph glyph-name="uni0437" unicode="&#x437;" horiz-adv-x="472" 
d="M318 258c72 -15 122 -58 122 -122c0 -98 -90 -145 -198 -145c-93 0 -178 46 -225 152l56 26c37 -84 93 -118 160 -118c73 0 142 20 142 89s-67 87 -148 87h-73v58h74c72 0 129 25 129 81c0 55 -52 82 -124 82c-63 0 -113 -32 -140 -101l-57 23c35 90 108 138 202 138
c106 0 184 -54 184 -138c0 -54 -42 -92 -104 -112z" />
    <glyph glyph-name="uni0438" unicode="&#x438;" horiz-adv-x="543" 
d="M485 0h-65v397l-307 -398h-55v501h65v-397l308 398h54v-501z" />
    <glyph glyph-name="uni0439" unicode="&#x439;" horiz-adv-x="543" 
d="M272 580c-80 0 -145 52 -145 138h61c0 -54 35 -83 84 -83s84 29 84 83h61c0 -86 -65 -138 -145 -138zM113 -1h-55v501h65v-397l308 398h54v-501h-65v397z" />
    <glyph glyph-name="uni045D" unicode="&#x45d;" horiz-adv-x="543" 
d="M319 584h-65l-95 134h74zM420 397l-307 -398h-55v501h65v-397l308 398h54v-501h-65v397z" />
    <glyph glyph-name="uni043A" unicode="&#x43a;" horiz-adv-x="436" 
d="M432 500l-242 -243l256 -257h-81l-242 245v-245h-65v500h65v-237l229 237h80z" />
    <glyph glyph-name="uni045C" unicode="&#x45c;" horiz-adv-x="436" 
d="M243 584h-65l86 134h74zM432 500l-242 -243l256 -257h-81l-242 245v-245h-65v500h65v-237l229 237h80z" />
    <glyph glyph-name="uni043B" unicode="&#x43b;" horiz-adv-x="521" 
d="M463 500v-500h-65v441h-228l-5 -232c-3 -144 -63 -196 -141 -218l-16 60c56 16 91 52 94 163l8 286h353z" />
    <glyph glyph-name="uni043C" unicode="&#x43c;" horiz-adv-x="612" 
d="M306 239l188 261h60v-500h-65v392l-176 -244h-14l-176 241v-389h-65v500h59z" />
    <glyph glyph-name="uni043D" unicode="&#x43d;" horiz-adv-x="543" 
d="M420 288v212h65v-500h-65v229h-297v-229h-65v500h65v-212h297z" />
    <glyph glyph-name="uni043E" unicode="&#x43e;" horiz-adv-x="562" 
d="M281 -9c-142 0 -248 105 -248 259c0 153 106 258 248 258s248 -105 248 -258c0 -154 -106 -259 -248 -259zM281 51c105 0 182 76 182 199c0 122 -77 198 -182 198s-182 -76 -182 -198c0 -123 77 -199 182 -199z" />
    <glyph glyph-name="uni043F" unicode="&#x43f;" horiz-adv-x="535" 
d="M123 0h-65v500h419v-500h-65v441h-289v-441z" />
    <glyph glyph-name="uni0440" unicode="&#x440;" horiz-adv-x="575" 
d="M307 508c132 0 235 -102 235 -258s-103 -258 -235 -258c-87 0 -149 46 -184 114v-269h-65v663h65v-106c35 68 97 114 184 114zM299 52c104 0 178 75 178 198s-74 198 -178 198s-178 -75 -178 -198s74 -198 178 -198z" />
    <glyph glyph-name="uni0441" unicode="&#x441;" horiz-adv-x="518" 
d="M270 -8c-134 0 -237 107 -237 258s103 258 237 258c95 0 184 -41 229 -169l-58 -24c-33 97 -92 133 -171 133c-93 0 -171 -72 -171 -198s78 -198 171 -198c79 0 138 36 171 133l58 -24c-45 -128 -134 -169 -229 -169z" />
    <glyph glyph-name="uni0442" unicode="&#x442;" horiz-adv-x="460" 
d="M263 0h-65v441h-182v59h428v-59h-181v-441z" />
    <glyph glyph-name="uni0443" unicode="&#x443;" horiz-adv-x="495" 
d="M16 500h74l169 -329l165 329h72l-332 -663h-72l132 265z" />
    <glyph glyph-name="uni045E" unicode="&#x45e;" horiz-adv-x="495" 
d="M257 580c-80 0 -145 52 -145 138h61c0 -54 35 -83 84 -83s84 29 84 83h61c0 -86 -65 -138 -145 -138zM224 102l-208 398h74l169 -329l165 329h72l-332 -663h-72z" />
    <glyph glyph-name="uni0444" unicode="&#x444;" horiz-adv-x="665" 
d="M633 249c0 -155 -111 -255 -268 -258v-154h-65v154c-157 3 -268 103 -268 259c0 155 111 255 268 258v192h65v-192c157 -3 268 -103 268 -259zM99 250c0 -128 84 -196 201 -199v397c-117 -3 -201 -71 -201 -198zM365 448v-397c117 3 201 71 201 198
c0 128 -84 196 -201 199z" />
    <glyph glyph-name="uni0445" unicode="&#x445;" horiz-adv-x="471" 
d="M388 500h76l-190 -243l200 -257h-79l-160 207l-162 -207h-76l200 255l-190 245h79l150 -194z" />
    <glyph glyph-name="uni0447" unicode="&#x447;" horiz-adv-x="502" 
d="M379 262v238h65v-500h-65v206c-53 -15 -99 -23 -146 -23c-131 0 -196 60 -196 174v143h65v-133c0 -85 41 -125 131 -125c39 0 91 5 146 20z" />
    <glyph glyph-name="uni0446" unicode="&#x446;" horiz-adv-x="554" 
d="M467 500v-441h62v-195h-62v136h-409v500h65v-441h279v441h65z" />
    <glyph glyph-name="uni0448" unicode="&#x448;" horiz-adv-x="791" 
d="M668 59v441h65v-500h-675v500h65v-441h240v441h65v-441h240z" />
    <glyph glyph-name="uni0449" unicode="&#x449;" horiz-adv-x="820" 
d="M733 500v-441h62v-195h-62v136h-675v500h65v-441h240v441h65v-441h240v441h65z" />
    <glyph glyph-name="uni045F" unicode="&#x45f;" horiz-adv-x="525" 
d="M402 500h65v-500h-173v-136h-62v136h-174v500h65v-441h279v441z" />
    <glyph glyph-name="uni044C" unicode="&#x44c;" horiz-adv-x="478" 
d="M123 306h159c103 0 173 -56 173 -153s-70 -153 -173 -153h-224v500h65v-194zM123 59h154c71 0 112 28 112 94s-41 94 -112 94h-154v-188z" />
    <glyph glyph-name="uni044A" unicode="&#x44a;" horiz-adv-x="572" 
d="M217 306h159c103 0 173 -56 173 -153s-70 -153 -173 -153h-224v441h-136v59h201v-194zM217 59h154c71 0 112 28 112 94s-41 94 -112 94h-154v-188z" />
    <glyph glyph-name="uni044B" unicode="&#x44b;" horiz-adv-x="663" 
d="M123 500v-194h159c103 0 173 -56 173 -153s-70 -153 -173 -153h-224v500h65zM605 0h-65v500h65v-500zM123 247v-188h154c71 0 112 28 112 94s-41 94 -112 94h-154z" />
    <glyph glyph-name="uni0459" unicode="&#x459;" horiz-adv-x="793" 
d="M450 300h152c100 0 168 -55 168 -150s-68 -150 -168 -150h-217v441h-215l-5 -232c-3 -144 -63 -196 -141 -218l-16 60c56 16 91 52 94 163l8 286h340v-200zM450 59h147c68 0 107 27 107 91s-39 91 -107 91h-147v-182z" />
    <glyph glyph-name="uni045A" unicode="&#x45a;" horiz-adv-x="802" 
d="M459 300h152c100 0 168 -55 168 -150s-68 -150 -168 -150h-217v241h-271v-241h-65v500h65v-200h271v200h65v-200zM459 59h147c68 0 107 27 107 91s-39 91 -107 91h-147v-182z" />
    <glyph glyph-name="uni0455" unicode="&#x455;" horiz-adv-x="458" 
d="M233 -9c-99 0 -182 45 -211 157l59 16c19 -81 84 -113 151 -113c79 0 129 34 129 80c0 45 -40 66 -121 86l-51 13c-105 27 -147 77 -147 144c0 77 72 134 177 134c96 0 186 -49 202 -159l-59 -12c-16 82 -75 110 -143 110c-63 0 -109 -29 -109 -73c0 -50 56 -72 116 -87
l51 -13c104 -27 151 -69 151 -142c0 -80 -77 -141 -195 -141z" />
    <glyph glyph-name="uni0454" unicode="&#x454;" horiz-adv-x="522" 
d="M270 52c79 0 138 36 171 133l58 -24c-45 -128 -134 -169 -229 -169c-134 0 -237 107 -237 258s103 258 237 258c95 0 184 -41 229 -169l-58 -24c-33 97 -92 133 -171 133c-85 0 -157 -60 -169 -166h260v-55h-261c9 -112 83 -175 170 -175z" />
    <glyph glyph-name="uni044D" unicode="&#x44d;" horiz-adv-x="522" 
d="M252 508c134 0 237 -107 237 -258s-103 -258 -237 -258c-95 0 -184 41 -229 169l58 24c33 -97 92 -133 171 -133c87 0 161 63 170 175h-261v55h260c-12 106 -84 166 -169 166c-79 0 -138 -36 -171 -133l-58 24c45 128 134 169 229 169z" />
    <glyph glyph-name="uni0456" unicode="&#x456;" horiz-adv-x="181" 
d="M90 616c-28 0 -49 22 -49 51c0 28 21 50 49 50c29 0 51 -22 51 -50c0 -29 -22 -51 -51 -51zM58 0v500h65v-500h-65z" />
    <glyph glyph-name="uni0457" unicode="&#x457;" horiz-adv-x="181" 
d="M25 616c-24 0 -42 17 -42 45s18 45 42 45s42 -17 42 -45s-18 -45 -42 -45zM155 616c-24 0 -42 17 -42 45s18 45 42 45s42 -17 42 -45s-18 -45 -42 -45zM58 500h65v-500h-65v500z" />
    <glyph glyph-name="uni0458" unicode="&#x458;" horiz-adv-x="181" 
d="M90 616c-28 0 -49 22 -49 51c0 28 21 50 49 50c29 0 51 -22 51 -50c0 -29 -22 -51 -51 -51zM58 -38v538h65v-541c0 -83 -41 -127 -110 -127h-23v61h17c33 0 51 22 51 69z" />
    <glyph glyph-name="uni045B" unicode="&#x45b;" horiz-adv-x="528" 
d="M283 508c112 0 192 -78 192 -200v-308h-65v299c0 90 -55 149 -136 149c-89 0 -151 -59 -151 -149v-299h-65v558h-74v57h74v85h65v-85h128v-57h-128v-139c35 62 98 89 160 89z" />
    <glyph glyph-name="uni044E" unicode="&#x44e;" horiz-adv-x="730" 
d="M456 508c138 0 241 -100 241 -258s-103 -259 -241 -259c-132 0 -232 92 -240 238h-93v-229h-65v500h65v-212h94c15 136 112 220 239 220zM456 51c101 0 175 72 175 199s-74 198 -175 198s-175 -71 -175 -198s74 -199 175 -199z" />
    <glyph glyph-name="uni044F" unicode="&#x44f;" horiz-adv-x="479" 
d="M421 500v-500h-65v192h-99l-161 -192h-82l168 195c-81 14 -137 69 -137 151c0 97 71 154 176 154h200zM226 251h130v190h-130c-74 0 -115 -33 -115 -95s40 -95 115 -95z" />
    <glyph glyph-name="uni0452" unicode="&#x452;" horiz-adv-x="518" 
d="M283 508c134 0 197 -103 197 -264c0 -140 -50 -279 -136 -420l-52 28c77 130 122 259 122 387c0 126 -38 209 -140 209c-89 0 -151 -59 -151 -149v-299h-65v558h-74v57h74v85h65v-85h128v-57h-128v-139c35 62 98 89 160 89z" />
    <glyph glyph-name="uni0463" unicode="&#x463;" horiz-adv-x="578" 
d="M222 294h164c100 0 168 -56 168 -147s-68 -147 -168 -147h-229v441h-141v59h141v200h65v-200h235v-59h-235v-147zM222 59h159c68 0 107 28 107 88s-39 88 -107 88h-159v-176z" />
    <glyph glyph-name="uni0473" unicode="&#x473;" horiz-adv-x="562" 
d="M281 508c142 0 248 -105 248 -258c0 -154 -106 -259 -248 -259s-248 105 -248 259c0 153 106 258 248 258zM281 448c-93 0 -164 -59 -179 -158c26 11 50 15 74 15c81 0 135 -41 208 -41c24 0 49 4 77 16c-11 105 -84 168 -180 168zM281 51c98 0 171 66 181 173
c-28 -11 -54 -16 -79 -16c-81 0 -135 41 -208 41c-23 0 -48 -4 -76 -16c7 -113 82 -182 182 -182z" />
    <glyph glyph-name="uni0475" unicode="&#x475;" horiz-adv-x="557" 
d="M493 504c17 0 34 -3 49 -11l-22 -53c-8 4 -15 5 -23 5c-30 0 -44 -24 -59 -62l-158 -384h-56l-214 501h70l173 -411l128 318c26 65 54 97 112 97z" />
    <glyph glyph-name="uni0493" unicode="&#x493;" horiz-adv-x="428" 
d="M412 500v-59h-252v-161h168v-59h-168v-221h-65v221h-76v59h76v220h317z" />
    <glyph glyph-name="uni0497" unicode="&#x497;" horiz-adv-x="694" 
d="M429 252l182 -193h82v-195h-62v136h-43l-225 241v-241h-65v241l-225 -241h-79l238 252l-224 248h78l212 -239v239h65v-239l212 239h78z" />
    <glyph glyph-name="uni0499" unicode="&#x499;" horiz-adv-x="472" 
d="M440 136c0 -84 -66 -131 -153 -142l18 -17c26 -24 38 -51 38 -75c0 -39 -31 -70 -94 -70h-58v59h54c21 0 33 11 33 27c0 13 -7 28 -22 43l-30 30c-86 5 -165 52 -209 152l56 26c37 -84 93 -118 160 -118c73 0 142 20 142 89s-67 87 -148 87h-73v58h74c72 0 129 25 129 81
c0 55 -52 82 -124 82c-63 0 -113 -32 -140 -101l-57 23c35 90 108 138 202 138c106 0 184 -54 184 -138c0 -54 -42 -92 -104 -112c72 -15 122 -58 122 -122z" />
    <glyph glyph-name="uni049B" unicode="&#x49b;" horiz-adv-x="467" 
d="M190 257l197 -198h81v-195h-62v136h-41l-242 245v-245h-65v500h65v-237l229 237h80z" />
    <glyph glyph-name="uni049D" unicode="&#x49d;" horiz-adv-x="462" 
d="M468 0h-73l-171 229h-5v-131h-53v131h-43v-229h-65v500h65v-212h43v128h53v-128h8l155 212h72l-180 -243z" />
    <glyph glyph-name="uni04A1" unicode="&#x4a1;" horiz-adv-x="548" 
d="M544 500l-242 -243l256 -257h-81l-242 245v-245h-65v441h-154v59h219v-237l229 237h80z" />
    <glyph glyph-name="uni04A3" unicode="&#x4a3;" horiz-adv-x="572" 
d="M485 500v-441h62v-195h-62v136h-65v229h-297v-229h-65v500h65v-212h297v212h65z" />
    <glyph glyph-name="uni04A5" unicode="&#x4a5;" horiz-adv-x="655" 
d="M653 500v-59h-168v-441h-65v229h-297v-229h-65v500h65v-212h297v212h233z" />
    <glyph glyph-name="uni04AB" unicode="&#x4ab;" horiz-adv-x="518" 
d="M270 52c79 0 138 36 171 133l58 -24c-40 -113 -114 -159 -197 -167l18 -17c26 -24 38 -51 38 -75c0 -39 -31 -70 -94 -70h-58v59h54c21 0 33 11 33 27c0 13 -7 28 -22 43l-32 33c-119 15 -206 117 -206 256c0 151 103 258 237 258c95 0 184 -41 229 -169l-58 -24
c-33 97 -92 133 -171 133c-93 0 -171 -72 -171 -198s78 -198 171 -198z" />
    <glyph glyph-name="uni04AF" unicode="&#x4af;" horiz-adv-x="489" 
d="M245 90l164 410h69l-203 -501v-162h-61v162l-203 501h70z" />
    <glyph glyph-name="uni04B1" unicode="&#x4b1;" horiz-adv-x="489" 
d="M409 500h69l-203 -500h110v-59h-110v-104h-61v104h-110v59h110l-203 500h70l164 -410z" />
    <glyph glyph-name="uni04B3" unicode="&#x4b3;" horiz-adv-x="503" 
d="M274 257l154 -198h74v-195h-62v136h-45l-160 207l-162 -207h-76l200 255l-190 245h79l150 -194l152 194h76z" />
    <glyph glyph-name="uni04B7" unicode="&#x4b7;" horiz-adv-x="531" 
d="M444 500v-441h62v-195h-62v136h-65v206c-53 -15 -99 -23 -146 -23c-131 0 -196 60 -196 174v143h65v-133c0 -85 41 -125 131 -125c39 0 91 5 146 20v238h65z" />
    <glyph glyph-name="uni04B9" unicode="&#x4b9;" horiz-adv-x="500" 
d="M377 283v217h65v-500h-65v227c-40 -12 -76 -19 -112 -22v-107h-53v106c-118 6 -177 66 -177 174v122h65v-112c0 -79 35 -119 112 -124v152h53v-152c33 2 72 8 112 19z" />
    <glyph glyph-name="uni04BB" unicode="&#x4bb;" horiz-adv-x="528" 
d="M283 508c112 0 192 -78 192 -200v-308h-65v299c0 90 -55 149 -136 149c-89 0 -151 -59 -151 -149v-299h-65v700h65v-281c35 62 98 89 160 89z" />
    <glyph glyph-name="uni04CF" unicode="&#x4cf;" horiz-adv-x="237" 
d="M188 59h44v-59h-49c-84 0 -123 55 -123 127v573h65v-569c0 -46 18 -72 63 -72z" />
    <glyph glyph-name="uni04C2" unicode="&#x4c2;" horiz-adv-x="661" 
d="M331 580c-80 0 -145 52 -145 138h61c0 -54 35 -83 84 -83s84 29 84 83h61c0 -86 -65 -138 -145 -138zM653 500l-224 -248l238 -252h-79l-225 241v-241h-65v241l-225 -241h-79l238 252l-224 248h78l212 -239v239h65v-239l212 239h78z" />
    <glyph glyph-name="uni04D1" unicode="&#x4d1;" horiz-adv-x="508" 
d="M251 580c-80 0 -145 52 -145 138h61c0 -54 35 -83 84 -83s84 29 84 83h61c0 -86 -65 -138 -145 -138zM243 508c106 0 212 -55 212 -196v-312h-65v51c-31 -39 -85 -60 -161 -60c-104 0 -203 52 -203 153s99 153 202 153c76 0 131 -22 162 -60v68c0 107 -73 144 -147 144
s-129 -41 -145 -105l-56 18c21 92 102 146 201 146zM244 46c83 0 148 34 148 98s-65 98 -148 98s-151 -32 -151 -98s68 -98 151 -98z" />
    <glyph glyph-name="uni04D3" unicode="&#x4d3;" horiz-adv-x="508" 
d="M141 596c-26 0 -45 18 -45 45s19 45 45 45s45 -18 45 -45s-19 -45 -45 -45zM361 596c-26 0 -45 18 -45 45s19 45 45 45s45 -18 45 -45s-19 -45 -45 -45zM243 508c106 0 212 -55 212 -196v-312h-65v51c-31 -39 -85 -60 -161 -60c-104 0 -203 52 -203 153s99 153 202 153
c76 0 131 -22 162 -60v68c0 107 -73 144 -147 144s-129 -41 -145 -105l-56 18c21 92 102 146 201 146zM244 46c83 0 148 34 148 98s-65 98 -148 98s-151 -32 -151 -98s68 -98 151 -98z" />
    <glyph glyph-name="uni04D5" unicode="&#x4d5;" horiz-adv-x="884" 
d="M851 257c0 -8 0 -14 -1 -21h-395c6 -118 79 -185 171 -185c71 0 132 31 166 117l56 -26c-49 -114 -137 -151 -225 -151c-80 0 -147 40 -187 107c-23 -66 -98 -107 -198 -107c-116 0 -212 52 -212 153s99 153 202 153c76 0 131 -22 162 -60v68c0 107 -73 144 -147 144
s-129 -41 -145 -105l-56 18c21 92 102 146 201 146c79 0 158 -33 189 -112c40 71 109 112 193 112c129 0 226 -99 226 -251zM624 448c-89 0 -153 -59 -166 -157h323c-12 105 -75 157 -157 157zM244 46c83 0 148 34 148 98s-65 98 -148 98s-151 -32 -151 -98s68 -98 151 -98z
" />
    <glyph glyph-name="uni04D7" unicode="&#x4d7;" horiz-adv-x="528" 
d="M269 580c-80 0 -145 52 -145 138h61c0 -54 35 -83 84 -83s84 29 84 83h61c0 -86 -65 -138 -145 -138zM495 257c0 -8 0 -14 -1 -21h-395c6 -118 79 -185 171 -185c71 0 132 31 166 117l56 -26c-49 -114 -137 -151 -225 -151c-134 0 -234 105 -234 259
c0 159 101 258 236 258c129 0 226 -99 226 -251zM268 448c-89 0 -153 -59 -166 -157h323c-12 105 -75 157 -157 157z" />
    <glyph glyph-name="uni04D9" unicode="&#x4d9;" horiz-adv-x="528" 
d="M33 243c0 8 0 14 1 21h395c-6 118 -79 185 -171 185c-71 0 -132 -31 -166 -117l-56 26c49 114 137 151 225 151c134 0 234 -105 234 -259c0 -159 -101 -258 -236 -258c-129 0 -226 99 -226 251zM260 52c89 0 153 59 166 157h-323c12 -105 75 -157 157 -157z" />
    <glyph glyph-name="uni04DB" unicode="&#x4db;" horiz-adv-x="528" 
d="M159 596c-26 0 -45 18 -45 45s19 45 45 45s45 -18 45 -45s-19 -45 -45 -45zM379 596c-26 0 -45 18 -45 45s19 45 45 45s45 -18 45 -45s-19 -45 -45 -45zM33 243c0 8 0 14 1 21h395c-6 118 -79 185 -171 185c-71 0 -132 -31 -166 -117l-56 26c49 114 137 151 225 151
c134 0 234 -105 234 -259c0 -159 -101 -258 -236 -258c-129 0 -226 99 -226 251zM260 52c89 0 153 59 166 157h-323c12 -105 75 -157 157 -157z" />
    <glyph glyph-name="uni04DD" unicode="&#x4dd;" horiz-adv-x="661" 
d="M221 596c-26 0 -45 18 -45 45s19 45 45 45s45 -18 45 -45s-19 -45 -45 -45zM441 596c-26 0 -45 18 -45 45s19 45 45 45s45 -18 45 -45s-19 -45 -45 -45zM575 500h78l-224 -248l238 -252h-79l-225 241v-241h-65v241l-225 -241h-79l238 252l-224 248h78l212 -239v239h65
v-239z" />
    <glyph glyph-name="uni04DF" unicode="&#x4df;" horiz-adv-x="472" 
d="M130 596c-26 0 -45 18 -45 45s19 45 45 45s45 -18 45 -45s-19 -45 -45 -45zM350 596c-26 0 -45 18 -45 45s19 45 45 45s45 -18 45 -45s-19 -45 -45 -45zM318 258c72 -15 122 -58 122 -122c0 -98 -90 -145 -198 -145c-93 0 -178 46 -225 152l56 26
c37 -84 93 -118 160 -118c73 0 142 20 142 89s-67 87 -148 87h-73v58h74c72 0 129 25 129 81c0 55 -52 82 -124 82c-63 0 -113 -32 -140 -101l-57 23c35 90 108 138 202 138c106 0 184 -54 184 -138c0 -54 -42 -92 -104 -112z" />
    <glyph glyph-name="uni04E3" unicode="&#x4e3;" horiz-adv-x="543" 
d="M420 612h-295v59h295v-59zM420 0v397l-307 -398h-55v501h65v-397l308 398h54v-501h-65z" />
    <glyph glyph-name="uni04E5" unicode="&#x4e5;" horiz-adv-x="543" 
d="M162 596c-26 0 -45 18 -45 45s19 45 45 45s45 -18 45 -45s-19 -45 -45 -45zM382 596c-26 0 -45 18 -45 45s19 45 45 45s45 -18 45 -45s-19 -45 -45 -45zM485 0h-65v397l-307 -398h-55v501h65v-397l308 398h54v-501z" />
    <glyph glyph-name="uni04E7" unicode="&#x4e7;" horiz-adv-x="562" 
d="M171 596c-26 0 -45 18 -45 45s19 45 45 45s45 -18 45 -45s-19 -45 -45 -45zM391 596c-26 0 -45 18 -45 45s19 45 45 45s45 -18 45 -45s-19 -45 -45 -45zM281 -9c-142 0 -248 105 -248 259c0 153 106 258 248 258s248 -105 248 -258c0 -154 -106 -259 -248 -259zM281 51
c105 0 182 76 182 199c0 122 -77 198 -182 198s-182 -76 -182 -198c0 -123 77 -199 182 -199z" />
    <glyph glyph-name="uni04E9" unicode="&#x4e9;" horiz-adv-x="562" 
d="M281 508c142 0 248 -105 248 -258c0 -154 -106 -259 -248 -259s-248 105 -248 259c0 153 106 258 248 258zM281 448c-95 0 -167 -62 -180 -164h360c-13 102 -85 164 -180 164zM281 51c99 0 173 67 181 178h-362c8 -111 82 -178 181 -178z" />
    <glyph glyph-name="uni04EB" unicode="&#x4eb;" horiz-adv-x="562" 
d="M171 596c-26 0 -45 18 -45 45s19 45 45 45s45 -18 45 -45s-19 -45 -45 -45zM391 596c-26 0 -45 18 -45 45s19 45 45 45s45 -18 45 -45s-19 -45 -45 -45zM281 508c142 0 248 -105 248 -258c0 -154 -106 -259 -248 -259s-248 105 -248 259c0 153 106 258 248 258zM281 448
c-95 0 -167 -62 -180 -164h360c-13 102 -85 164 -180 164zM281 51c99 0 173 67 181 178h-362c8 -111 82 -178 181 -178z" />
    <glyph glyph-name="uni04ED" unicode="&#x4ed;" horiz-adv-x="522" 
d="M138 596c-26 0 -45 18 -45 45s19 45 45 45s45 -18 45 -45s-19 -45 -45 -45zM358 596c-26 0 -45 18 -45 45s19 45 45 45s45 -18 45 -45s-19 -45 -45 -45zM252 508c134 0 237 -107 237 -258s-103 -258 -237 -258c-95 0 -184 41 -229 169l58 24c33 -97 92 -133 171 -133
c87 0 161 63 170 175h-261v55h260c-12 106 -84 166 -169 166c-79 0 -138 -36 -171 -133l-58 24c45 128 134 169 229 169z" />
    <glyph glyph-name="uni04EF" unicode="&#x4ef;" horiz-adv-x="495" 
d="M405 612h-295v59h295v-59zM92 -163l132 265l-208 398h74l169 -329l165 329h72l-332 -663h-72z" />
    <glyph glyph-name="uni04F1" unicode="&#x4f1;" horiz-adv-x="495" 
d="M147 596c-26 0 -45 18 -45 45s19 45 45 45s45 -18 45 -45s-19 -45 -45 -45zM367 596c-26 0 -45 18 -45 45s19 45 45 45s45 -18 45 -45s-19 -45 -45 -45zM224 102l-208 398h74l169 -329l165 329h72l-332 -663h-72z" />
    <glyph glyph-name="uni04F3" unicode="&#x4f3;" horiz-adv-x="495" 
d="M284 718l-95 -134h-65l86 134h74zM471 718l-95 -134h-65l86 134h74zM164 -163h-72l132 265l-208 398h74l169 -329l165 329h72z" />
    <glyph glyph-name="uni04F5" unicode="&#x4f5;" horiz-adv-x="502" 
d="M131 596c-26 0 -45 18 -45 45s19 45 45 45s45 -18 45 -45s-19 -45 -45 -45zM351 596c-26 0 -45 18 -45 45s19 45 45 45s45 -18 45 -45s-19 -45 -45 -45zM379 262v238h65v-500h-65v206c-53 -15 -99 -23 -146 -23c-131 0 -196 60 -196 174v143h65v-133
c0 -85 41 -125 131 -125c39 0 91 5 146 20z" />
    <glyph glyph-name="uni04F9" unicode="&#x4f9;" horiz-adv-x="663" 
d="M223 596c-26 0 -45 18 -45 45s19 45 45 45s45 -18 45 -45s-19 -45 -45 -45zM443 596c-26 0 -45 18 -45 45s19 45 45 45s45 -18 45 -45s-19 -45 -45 -45zM123 500v-194h159c103 0 173 -56 173 -153s-70 -153 -173 -153h-224v500h65zM605 0h-65v500h65v-500zM123 247v-188
h154c71 0 112 28 112 94s-41 94 -112 94h-154z" />
    <glyph glyph-name="uni0430.ss02" horiz-adv-x="575" 
d="M452 394v106h65v-500h-65v106c-35 -68 -97 -114 -184 -114c-132 0 -235 102 -235 258s103 258 235 258c87 0 149 -46 184 -114zM276 52c104 0 178 75 178 198s-74 198 -178 198s-178 -75 -178 -198s74 -198 178 -198z" />
    <glyph glyph-name="uni04D1.ss02" horiz-adv-x="575" 
d="M286 580c-80 0 -145 52 -145 138h61c0 -54 35 -83 84 -83s84 29 84 83h61c0 -86 -65 -138 -145 -138zM452 394v106h65v-500h-65v106c-35 -68 -97 -114 -184 -114c-132 0 -235 102 -235 258s103 258 235 258c87 0 149 -46 184 -114zM276 52c104 0 178 75 178 198
s-74 198 -178 198s-178 -75 -178 -198s74 -198 178 -198z" />
    <glyph glyph-name="uni04D3.ss02" horiz-adv-x="575" 
d="M176 596c-26 0 -45 18 -45 45s19 45 45 45s45 -18 45 -45s-19 -45 -45 -45zM396 596c-26 0 -45 18 -45 45s19 45 45 45s45 -18 45 -45s-19 -45 -45 -45zM452 394v106h65v-500h-65v106c-35 -68 -97 -114 -184 -114c-132 0 -235 102 -235 258s103 258 235 258
c87 0 149 -46 184 -114zM276 52c104 0 178 75 178 198s-74 198 -178 198s-178 -75 -178 -198s74 -198 178 -198z" />
    <glyph glyph-name="Alpha" unicode="&#x391;" horiz-adv-x="637" 
d="M561 0l-87 221h-312l-87 -221h-70l282 700h63l283 -700h-72zM449 284l-131 331l-131 -331h262z" />
    <glyph glyph-name="Beta" unicode="&#x392;" horiz-adv-x="623" 
d="M441 372c87 -16 150 -76 150 -173c0 -137 -102 -199 -244 -199h-277v700h254c138 0 234 -55 234 -182c0 -76 -47 -128 -117 -146zM324 637h-187v-239h187c97 0 164 26 164 120c0 92 -67 119 -164 119zM347 335h-210v-272h210c105 0 174 33 174 136s-69 136 -174 136z" />
    <glyph glyph-name="Gamma" unicode="&#x393;" horiz-adv-x="512" 
d="M500 636h-363v-636h-67v700h430v-64z" />
    <glyph glyph-name="uni0394" unicode="&#x394;" horiz-adv-x="631" 
d="M284 700h63l268 -648v-52h-599v52zM315 615l-225 -552h450z" />
    <glyph glyph-name="Epsilon" unicode="&#x395;" horiz-adv-x="569" 
d="M535 0h-465v700h465v-63h-398v-253h359v-63h-359v-258h398v-63z" />
    <glyph glyph-name="Zeta" unicode="&#x396;" horiz-adv-x="546" 
d="M525 0h-506v52l418 585h-411v63h498v-52l-418 -585h419v-63z" />
    <glyph glyph-name="Eta" unicode="&#x397;" horiz-adv-x="691" 
d="M621 0h-67v321h-417v-321h-67v700h67v-316h417v316h67v-700z" />
    <glyph glyph-name="Theta" unicode="&#x398;" horiz-adv-x="767" 
d="M384 -9c-205 0 -349 146 -349 359s144 359 349 359s348 -146 348 -359s-143 -359 -348 -359zM384 56c160 0 278 112 278 294s-118 294 -278 294s-279 -112 -279 -294s119 -294 279 -294zM182 384h399v-63h-399v63z" />
    <glyph glyph-name="Iota" unicode="&#x399;" horiz-adv-x="207" 
d="M70 0v700h67v-700h-67z" />
    <glyph glyph-name="Kappa" unicode="&#x39a;" horiz-adv-x="589" 
d="M70 700h67v-336l353 336h91l-368 -344l394 -356h-96l-374 338v-338h-67v700z" />
    <glyph glyph-name="Lambda" unicode="&#x39b;" horiz-adv-x="637" 
d="M350 700l283 -700h-72l-243 615l-243 -615h-70l282 700h63z" />
    <glyph glyph-name="Mu" unicode="&#x39c;" horiz-adv-x="789" 
d="M70 0v701h61l265 -370l263 370h60v-701h-67v579l-249 -348h-15l-251 348v-579h-67z" />
    <glyph glyph-name="Nu" unicode="&#x39d;" horiz-adv-x="702" 
d="M565 119v581h67v-700h-57l-438 581v-581h-67v700h57z" />
    <glyph glyph-name="Xi" unicode="&#x39e;" horiz-adv-x="538" 
d="M31 700h476v-63h-476v63zM468 384v-63h-398v63h398zM31 0v63h476v-63h-476z" />
    <glyph glyph-name="Omicron" unicode="&#x39f;" horiz-adv-x="767" 
d="M384 -9c-205 0 -349 146 -349 359s144 359 349 359s348 -146 348 -359s-143 -359 -348 -359zM384 56c160 0 278 112 278 294s-118 294 -278 294s-279 -112 -279 -294s119 -294 279 -294z" />
    <glyph glyph-name="Pi" unicode="&#x3a0;" horiz-adv-x="678" 
d="M70 700h538v-700h-67v637h-404v-637h-67v700z" />
    <glyph glyph-name="Rho" unicode="&#x3a1;" horiz-adv-x="590" 
d="M70 0v700h243c154 0 254 -81 254 -222s-100 -223 -254 -223h-176v-255h-67zM306 637h-169v-319h169c121 0 191 54 191 160s-70 159 -191 159z" />
    <glyph glyph-name="Sigma" unicode="&#x3a3;" horiz-adv-x="519" 
d="M347 345l-237 -282h388v-63h-483v52l258 301l-248 296v51h471v-63h-377l228 -274v-18z" />
    <glyph glyph-name="Tau" unicode="&#x3a4;" horiz-adv-x="553" 
d="M541 700v-64h-231v-636h-67v636h-231v64h529z" />
    <glyph glyph-name="Upsilon" unicode="&#x3a5;" horiz-adv-x="651" 
d="M326 410l234 290h78l-279 -358v-342h-67v343l-280 357h80z" />
    <glyph glyph-name="Phi" unicode="&#x3a6;" horiz-adv-x="801" 
d="M769 354c0 -177 -125 -293 -335 -300v-75h-67v75c-210 7 -335 123 -335 300c0 178 125 293 335 300v72h67v-72c210 -7 335 -122 335 -300zM102 354c0 -146 91 -231 265 -237v474c-175 -6 -265 -90 -265 -237zM434 591v-474c174 6 265 91 265 237c0 147 -90 231 -265 237z
" />
    <glyph glyph-name="Chi" unicode="&#x3a7;" horiz-adv-x="605" 
d="M531 0l-229 305l-230 -305h-79l270 357l-258 343h81l217 -289l218 289h79l-257 -341l269 -359h-81z" />
    <glyph glyph-name="Psi" unicode="&#x3a8;" horiz-adv-x="734" 
d="M626 453v247h68v-252c0 -191 -135 -286 -287 -286h-7v-162h-67v162h-6c-152 0 -287 95 -287 286v252h68v-247c0 -155 93 -227 219 -227h6v474h67v-474h7c126 0 219 72 219 227z" />
    <glyph glyph-name="uni03A9" unicode="&#x3a9;" horiz-adv-x="774" 
d="M577 63h164v-63h-295v52c122 36 210 131 210 298c0 182 -115 294 -269 294s-269 -112 -269 -294c0 -167 88 -262 210 -298v-52h-295v63h164c-96 64 -149 166 -149 290c0 209 140 356 339 356s339 -147 339 -356c0 -124 -53 -226 -149 -290z" />
    <glyph glyph-name="Alphatonos" unicode="&#x386;" horiz-adv-x="652" 
d="M576 0l-87 221h-312l-87 -221h-70l282 700h63l283 -700h-72zM148 700l-48 -194h-54l36 194h66zM464 284l-131 331l-131 -331h262z" />
    <glyph glyph-name="Epsilontonos" unicode="&#x388;" horiz-adv-x="656" 
d="M103 700l-48 -194h-54l36 194h66zM622 0h-465v700h465v-63h-398v-253h359v-63h-359v-258h398v-63z" />
    <glyph glyph-name="Etatonos" unicode="&#x389;" horiz-adv-x="778" 
d="M103 700l-48 -194h-54l36 194h66zM708 0h-67v321h-417v-321h-67v700h67v-316h417v316h67v-700z" />
    <glyph glyph-name="Iotatonos" unicode="&#x38a;" horiz-adv-x="294" 
d="M103 700l-48 -194h-54l36 194h66zM157 0v700h67v-700h-67z" />
    <glyph glyph-name="Omicrontonos" unicode="&#x38c;" horiz-adv-x="836" 
d="M453 -9c-205 0 -349 146 -349 359s144 359 349 359s348 -146 348 -359s-143 -359 -348 -359zM108 700l-48 -194h-54l36 194h66zM453 56c160 0 278 112 278 294s-118 294 -278 294s-279 -112 -279 -294s119 -294 279 -294z" />
    <glyph glyph-name="Upsilontonos" unicode="&#x38e;" horiz-adv-x="816" 
d="M126 700l-48 -194h-54l36 194h66zM491 410l234 290h78l-279 -358v-342h-67v343l-280 357h80z" />
    <glyph glyph-name="Omegatonos" unicode="&#x38f;" horiz-adv-x="850" 
d="M653 63h164v-63h-295v52c122 36 210 131 210 298c0 182 -115 294 -269 294s-269 -112 -269 -294c0 -167 88 -262 210 -298v-52h-295v63h164c-96 64 -149 166 -149 290c0 209 140 356 339 356s339 -147 339 -356c0 -124 -53 -226 -149 -290zM110 700l-48 -194h-54l36 194
h66z" />
    <glyph glyph-name="Iotadieresis" unicode="&#x3aa;" horiz-adv-x="207" 
d="M-7 796c-26 0 -45 18 -45 45s19 45 45 45s45 -18 45 -45s-19 -45 -45 -45zM213 796c-26 0 -45 18 -45 45s19 45 45 45s45 -18 45 -45s-19 -45 -45 -45zM137 0h-67v700h67v-700z" />
    <glyph glyph-name="Upsilondieresis" unicode="&#x3ab;" horiz-adv-x="651" 
d="M216 796c-26 0 -45 18 -45 45s19 45 45 45s45 -18 45 -45s-19 -45 -45 -45zM436 796c-26 0 -45 18 -45 45s19 45 45 45s45 -18 45 -45s-19 -45 -45 -45zM12 700h80l234 -290l234 290h78l-279 -358v-342h-67v343z" />
    <glyph glyph-name="alpha" unicode="&#x3b1;" horiz-adv-x="575" 
d="M452 394v106h65v-500h-65v106c-35 -68 -97 -114 -184 -114c-132 0 -235 102 -235 258s103 258 235 258c87 0 149 -46 184 -114zM276 52c104 0 178 75 178 198s-74 198 -178 198s-178 -75 -178 -198s74 -198 178 -198z" />
    <glyph glyph-name="beta" unicode="&#x3b2;" horiz-adv-x="559" 
d="M377 369c85 -13 151 -85 151 -173c0 -129 -102 -205 -226 -205c-83 0 -145 37 -179 105v-259h-65v667c0 117 75 205 216 205c121 0 216 -75 216 -186c0 -81 -48 -139 -113 -154zM292 51c98 0 169 52 169 145c0 92 -68 142 -167 142h-58v58h37c80 0 151 35 151 126
c0 82 -67 127 -151 127c-91 0 -150 -56 -150 -148v-263c0 -120 64 -187 169 -187z" />
    <glyph glyph-name="gamma" unicode="&#x3b3;" horiz-adv-x="489" 
d="M245 90l164 410h69l-203 -501v-162h-61v162l-203 501h70z" />
    <glyph glyph-name="delta" unicode="&#x3b4;" horiz-adv-x="552" 
d="M217 641l202 -189c88 -83 101 -156 101 -213c0 -141 -102 -247 -243 -247s-244 105 -244 244s102 238 230 238c19 0 37 -2 53 -6l-198 184v48h365v-59h-266zM277 52c103 0 179 78 179 184s-76 184 -179 184s-179 -78 -179 -184s76 -184 179 -184z" />
    <glyph glyph-name="epsilon" unicode="&#x3b5;" horiz-adv-x="472" 
d="M399 169l56 -26c-47 -106 -132 -152 -225 -152c-108 0 -198 47 -198 145c0 64 50 107 122 122c-62 20 -104 58 -104 112c0 84 78 138 184 138c94 0 167 -48 202 -138l-57 -23c-27 69 -77 101 -140 101c-72 0 -124 -27 -124 -82c0 -56 57 -81 129 -81h74v-58h-73
c-81 0 -148 -18 -148 -87s69 -89 142 -89c67 0 123 34 160 118z" />
    <glyph glyph-name="zeta" unicode="&#x3b6;" horiz-adv-x="406" 
d="M410 700v-48l-231 -258c-53 -59 -81 -109 -81 -175c0 -96 63 -122 165 -159c70 -25 127 -56 127 -138c0 -26 -11 -62 -23 -85h-68c15 27 25 61 25 77c0 53 -30 69 -106 96c-86 31 -187 73 -187 209c0 78 40 145 100 212l189 210h-253v59h343z" />
    <glyph glyph-name="eta" unicode="&#x3b7;" horiz-adv-x="528" 
d="M283 508c112 0 192 -78 192 -200v-471h-65v462c0 90 -55 149 -136 149c-89 0 -151 -59 -151 -149v-299h-65v500h65v-81c35 62 98 89 160 89z" />
    <glyph glyph-name="theta" unicode="&#x3b8;" horiz-adv-x="566" 
d="M282 709c144 0 244 -116 244 -358c0 -243 -100 -360 -244 -360c-143 0 -241 117 -241 360c0 242 98 358 241 358zM282 649c-95 0 -166 -74 -175 -257h354c-9 183 -82 257 -179 257zM282 51c101 0 176 82 180 282h-356c4 -200 77 -282 176 -282z" />
    <glyph glyph-name="iota" unicode="&#x3b9;" horiz-adv-x="237" 
d="M188 59h50v-59h-55c-84 0 -123 55 -123 127v373h65v-369c0 -46 18 -72 63 -72z" />
    <glyph glyph-name="kappa" unicode="&#x3ba;" horiz-adv-x="436" 
d="M190 257l256 -257h-81l-242 245v-245h-65v500h65v-237l229 237h80z" />
    <glyph glyph-name="lambda" unicode="&#x3bb;" horiz-adv-x="511" 
d="M244 611l258 -611h-72l-175 430l-171 -430h-74l212 505l-41 87c-18 39 -39 49 -75 49h-26v59h34c63 0 102 -22 130 -89z" />
    <glyph glyph-name="uni03BC" unicode="&#x3bc;" horiz-adv-x="533" 
d="M410 201v299h65v-500h-65v80c-34 -61 -96 -88 -157 -88c-54 0 -99 22 -130 60v-215h-65v663h65v-299c0 -90 55 -149 136 -149c89 0 151 59 151 149z" />
    </font>
</defs>
</svg>
